[ Today is free to download without increasing Download ]

DL-List and Torrent activity
Complete: [ 2 ]
- Отцы и дочери / Fathers and Daughters (2015) BDRip - Производство: США, Италия / Andrea Leone Films, Busted Shark Productions, Fear of God Films, Voltage Pictures
Жанр: Драма
Режиссер: Габриэле Муччино / Gabriele Muccino
Продюсер: Николя Картье, Шеррил Кларк, Крэйг Дж. Флорес
Актеры: Аманда Сайфред, Джейн Фонда, Аарон Пол, Дайан Крюгер, Рассел Кроу, Райан Игголд, Брюс Гринвуд, Куавенжане Уоллис, Джанет МакТир, Октавия Спенсер
История отца и дочери, живущих на Манхэттене. В прошлом персонаж Кроу — знаменитый писатель, вдовец и страдающий от психических расстройств человек — пытается вырастить 5-летнюю дочь и буквально не сойти с ума, ну а в настоящем, героиня Сейфрид, уже повзрослевшая дочка сражается с собственными демонами.
Рейтинг MPAA: R
Дата мировой премьеры: 1 октября 2015
Дата премьеры в России: 19 ноября 2015, «West»

Продолжительность: 01:56:33
Качество видео: BDRip
Перевод: Двуголосый закадровый, любительский
Озвучка / Автор перевода: Parovoz Production
Вид субтитров: Отсутствуют
Реклама: Отсутствует
Видео: Xvid, 720x304 (2.37:1), ~~1334 kbps
Аудио: AC3, 6 ch, 384 Kbps


Complete name                            : D:\Фильмы\Otcy.i.Docheri.2015.L2.6ch.BDRip_MegaPeer_by_Twi7ter.avi
Format                                   : AVI
Format/Info                              : Audio Video Interleave
File size                                : 1.41 GiB
Duration                                 : 1h 56mn
Overall bit rate                         : 1 728 Kbps
Movie name                               : Otcy.i.Docheri.2015.L2.6ch.BDRip_MegaPeer_by_Twi7ter
Director                                 : Twi7ter
Genre                                    : Drama
Writing application                      : VirtualDubMod (build 2550/release)
Original source form/Name                : Movie
ID                                       : 0
Format                                   : MPEG-4 Visual
Format profile                           : Advanced Simple@L5
Format settings, BVOP                    : 2
Format settings, QPel                    : No
Format settings, GMC                     : No warppoints
Format settings, Matrix                  : Custom
Codec ID                                 : XVID
Codec ID/Hint                            : XviD
Duration                                 : 1h 56mn
Bit rate                                 : 1 335 Kbps
Width                                    : 720 pixels
Height                                   : 304 pixels
Display aspect ratio                     : 2.35:1
Frame rate                               : 24.000 fps
Color space                              : YUV
Chroma subsampling                       : 4:2:0
Bit depth                                : 8 bits
Scan type                                : Progressive
Compression mode                         : Lossy
Bits/(Pixel*Frame)                       : 0.254
Stream size                              : 1.09 GiB (77%)
Writing library                          : XviD 73
ID                                       : 1
Format                                   : AC-3
Format/Info                              : Audio Coding 3
Mode extension                           : CM (complete main)
Format settings, Endianness              : Big
Codec ID                                 : 2000
Duration                                 : 1h 56mn
Bit rate mode                            : Constant
Bit rate                                 : 384 Kbps
Channel(s)                               : 6 channels
Channel positions                        : Front: L C R, Side: L R, LFE
Sampling rate                            : 48.0 KHz
Frame rate                               : 31.250 fps (1536 spf)
Compression mode                         : Lossy
Delay relative to video                  : 4ms
Stream size                              : 320 MiB (22%)
Alignment                                : Split accross interleaves
Interleave, duration                     : 42 ms (1.00 video frame)
Interleave, preload duration             : 500 ms


Топик был перенесен из форума Новинки кинопроката в форум Драма

Display posts:    

Current time is: 22-Oct 10:09

All times are UTC + 3

You cannot post new topics in this forum
You cannot reply to topics in this forum
You cannot edit your posts in this forum
You cannot delete your posts in this forum
You cannot vote in polls in this forum
You cannot attach files in this forum
You cannot download files in this forum

The site does not give electronic versions of products, and is engaged only in a collecting and cataloguing of the references sent and published at a forum by our readers. If you are the legal owner of any submitted material and do not wish that the reference to it was in our catalogue, contact us and we shall immediately remove her. Files for an exchange on tracker are given by users of a site, and the administration does not bear the responsibility for their maintenance. The request to not fill in the files protected by copyrights, and also files of the illegal maintenance!