[ Сегодня идет свободное скачивание без начисления Download ]


Статистика раздачи
Скачал: [ 1 ]
 
   
 
Top  
 
 
- Отцы и дочери / Fathers and Daughters (2015) BDRip - Производство: США, Италия / Andrea Leone Films, Busted Shark Productions, Fear of God Films, Voltage Pictures
Жанр: Драма
Режиссер: Габриэле Муччино / Gabriele Muccino
Продюсер: Николя Картье, Шеррил Кларк, Крэйг Дж. Флорес
Актеры: Аманда Сайфред, Джейн Фонда, Аарон Пол, Дайан Крюгер, Рассел Кроу, Райан Игголд, Брюс Гринвуд, Куавенжане Уоллис, Джанет МакТир, Октавия Спенсер
Описание:
История отца и дочери, живущих на Манхэттене. В прошлом персонаж Кроу — знаменитый писатель, вдовец и страдающий от психических расстройств человек — пытается вырастить 5-летнюю дочь и буквально не сойти с ума, ну а в настоящем, героиня Сейфрид, уже повзрослевшая дочка сражается с собственными демонами.
Рейтинг MPAA: R
Дата мировой премьеры: 1 октября 2015
Дата премьеры в России: 19 ноября 2015, «West»

Продолжительность: 01:56:33
Качество видео: BDRip
Перевод: Двуголосый закадровый, любительский
Озвучка / Автор перевода: Parovoz Production
Вид субтитров: Отсутствуют
Реклама: Отсутствует
Видео: Xvid, 720x304 (2.37:1), ~~1334 kbps
Аудио: AC3, 6 ch, 384 Kbps

Mediainfo:

General
Complete name                            : D:\Фильмы\Otcy.i.Docheri.2015.L2.6ch.BDRip_MegaPeer_by_Twi7ter.avi
Format                                   : AVI
Format/Info                              : Audio Video Interleave
File size                                : 1.41 GiB
Duration                                 : 1h 56mn
Overall bit rate                         : 1 728 Kbps
Movie name                               : Otcy.i.Docheri.2015.L2.6ch.BDRip_MegaPeer_by_Twi7ter
Director                                 : Twi7ter
Genre                                    : Drama
Writing application                      : VirtualDubMod 1.5.10.3 (build 2550/release)
Original source form/Name                : Movie
Video
ID                                       : 0
Format                                   : MPEG-4 Visual
Format profile                           : Advanced Simple@L5
Format settings, BVOP                    : 2
Format settings, QPel                    : No
Format settings, GMC                     : No warppoints
Format settings, Matrix                  : Custom
Codec ID                                 : XVID
Codec ID/Hint                            : XviD
Duration                                 : 1h 56mn
Bit rate                                 : 1 335 Kbps
Width                                    : 720 pixels
Height                                   : 304 pixels
Display aspect ratio                     : 2.35:1
Frame rate                               : 24.000 fps
Color space                              : YUV
Chroma subsampling                       : 4:2:0
Bit depth                                : 8 bits
Scan type                                : Progressive
Compression mode                         : Lossy
Bits/(Pixel*Frame)                       : 0.254
Stream size                              : 1.09 GiB (77%)
Writing library                          : XviD 73
Audio
ID                                       : 1
Format                                   : AC-3
Format/Info                              : Audio Coding 3
Mode extension                           : CM (complete main)
Format settings, Endianness              : Big
Codec ID                                 : 2000
Duration                                 : 1h 56mn
Bit rate mode                            : Constant
Bit rate                                 : 384 Kbps
Channel(s)                               : 6 channels
Channel positions                        : Front: L C R, Side: L R, LFE
Sampling rate                            : 48.0 KHz
Frame rate                               : 31.250 fps (1536 spf)
Compression mode                         : Lossy
Delay relative to video                  : 4ms
Stream size                              : 320 MiB (22%)
Alignment                                : Split accross interleaves
Interleave, duration                     : 42 ms (1.00 video frame)
Interleave, preload duration             : 500 ms
Скриншоты:

[Цитировать]

Топик был перенесен из форума Новинки кинопроката в форум Драма
Henkok



Показать сообщения:    

Текущее время: 09-Дек 12:42

Часовой пояс: UTC + 3


Вы не можете начинать темы
Вы не можете отвечать на сообщения
Вы не можете редактировать свои сообщения
Вы не можете удалять свои сообщения
Вы не можете голосовать в опросах
Вы не можете прикреплять файлы к сообщениям
Вы не можете скачивать файлы

!ВНИМАНИЕ!
Сайт не предоставляет электронные версии произведений, а занимается лишь коллекционированием и каталогизацией ссылок, присылаемых и публикуемых на форуме нашими читателями. Если вы являетесь правообладателем какого-либо представленного материала и не желаете, чтобы ссылка на него находилась в нашем каталоге, свяжитесь с нами, и мы незамедлительно удалим ее. Файлы для обмена на трекере предоставлены пользователями сайта, и администрация не несет ответственности за их содержание. Просьба не заливать файлы, защищенные авторскими правами, а также файлы нелегального содержания!