[ Сегодня идет свободное скачивание без начисления Download ]


Статистика раздачи
Скачал: [ 1 ]
 
   
 
Top  
 
 
Штурм Белого дома / White House Down Название: Штурм Белого дома
Оригинальное название: White House Down
Год выпуска: 2013
Страна: США
Жанр: боевик, триллер
Продолжительность: 02:11:32
Перевод: Дубляж
Субтитры: русские (Полные), английские (Полные)
Режиссер: Роланд Эммерих
В ролях: Ченнинг Татум (Cale), Джейми Фокс (President Sawyer), Мэгги Джилленхол (Finnerty), Джейсон Кларк (Stenz), Ричард Дженкинс (Raphelson), Джеймс Вудс (Walker), Джои Кинг (Emily), Николас Райт (Donnie the Guide), Джимми Симпсон (Tyler), Майкл Мерфи (Vice President Hammond), Рашель Лефевр (Melanie), Лэнс Реддик (General Caulfield)
Описание:
Cотрудник госбезопасности приходит вместе с дочерью в Белый дом на собеседование на должность в структуру охраны президента. И именно в этот день Белый дом атакуют некие неопознанные вооружённые силы. Офицер проявляет чудеса находчивости и отваги, пытаясь спасти жизнь своему ребёнку, себе и президенту США.
Рейтинг:

MPAA: PG-13 - Детям до 13 лет просмотр не желателен
Качество: BDRip-AVC 60fps
Формат: MKV
Видео: AVC, 1024x424 (2.40:1), 3660 kbps, 59,940 fps, 0,141 bpp
Аудио: русский / AC3 / 5.1 / 48 kHz / 640 kbps / 16 bit
Навигация по главам: есть

ОтчетМедиаИнфо

General
Unique ID : 217401520425942497750282373142778603463 (0xA38E028331B2AC5EBC647AE9C705E7C7)
Format : Matroska
Format version : Version 4 / Version 2
File size : 3.95 GiB
Duration : 2h 11mn
Overall bit rate : 4 304 Kbps
Movie name : Tiberiumsun69
Encoded date : UTC 2016-02-07 07:54:46
Writing application : mkvmerge v8.3.0 ('Over the Horizon') 64bit
Writing library : libebml v1.3.1 + libmatroska v1.4.2
Attachment : Yes
Video
ID : 1
Format : AVC
Format/Info : Advanced Video Codec
Format profile : High@L4.1
Format settings, CABAC : Yes
Format settings, ReFrames : 4 frames
Codec ID : V_MPEG4/ISO/AVC
Duration : 2h 11mn
Bit rate : 3 660 Kbps
Width : 1 024 pixels
Height : 424 pixels
Display aspect ratio : 2.40:1
Frame rate : 59.940 fps
Color space : YUV
Chroma subsampling : 4:2:0
Bit depth : 8 bits
Scan type : Progressive
Bits/(Pixel*Frame) : 0.141
Stream size : 3.29 GiB (83%)
Title : Tiberiumsun69
Writing library : x264 core 146 r2538 121396c
Encoding settings : cabac=1 / ref=3 / deblock=1:0:0 / analyse=0x3:0x113 / me=umh / subme=9 / psy=1 / psy_rd=1.00:0.10 / mixed_ref=1 / me_range=32 / chroma_me=1 / trellis=2 / 8x8dct=1 / cqm=0 / deadzone=21,11 / fast_pskip=0 / chroma_qp_offset=-3 / threads=12 / lookahead_threads=3 / sliced_threads=0 / nr=0 / decimate=1 / interlaced=0 / bluray_compat=0 / constrained_intra=0 / bframes=16 / b_pyramid=2 / b_adapt=2 / b_bias=0 / direct=3 / weightb=1 / open_gop=0 / weightp=2 / keyint=250 / keyint_min=25 / scenecut=40 / intra_refresh=0 / rc_lookahead=40 / rc=2pass / mbtree=1 / bitrate=3660 / ratetol=1.0 / qcomp=0.60 / qpmin=0 / qpmax=69 / qpstep=4 / cplxblur=20.0 / qblur=0.5 / vbv_maxrate=14000 / vbv_bufsize=14000 / nal_hrd=none / filler=0 / ip_ratio=1.40 / aq=1:1.00
Language : English
Default : Yes
Forced : No
Audio
ID : 2
Format : AC-3
Format/Info : Audio Coding 3
Mode extension : CM (complete main)
Codec ID : A_AC3
Duration : 2h 11mn
Bit rate mode : Constant
Bit rate : 640 Kbps
Channel(s) : 6 channels
Channel positions : Front: L C R, Side: L R, LFE
Sampling rate : 48.0 KHz
Bit depth : 16 bits
Compression mode : Lossy
Stream size : 602 MiB (15%)
Title : Дубляж
Language : Russian
Default : Yes
Forced : No
Text #1
ID : 3
Format : UTF-8
Codec ID : S_TEXT/UTF8
Codec ID/Info : UTF-8 Plain Text
Title : Полные
Language : Russian
Default : No
Forced : No
Text #2
ID : 4
Format : UTF-8
Codec ID : S_TEXT/UTF8
Codec ID/Info : UTF-8 Plain Text
Title : Полные
Language : English
Default : No
Forced : No
Menu
00:00:00.000 : en:00:00:00.000
00:06:39.774 : en:00:06:39.774
00:15:18.835 : en:00:15:18.835
00:21:37.838 : en:00:21:37.838
00:30:10.809 : en:00:30:10.809
00:37:47.348 : en:00:37:47.348
00:45:51.207 : en:00:45:51.207
00:51:12.278 : en:00:51:12.278
00:59:55.133 : en:00:59:55.133
01:07:08.942 : en:01:07:08.942
01:14:42.853 : en:01:14:42.853
01:24:13.590 : en:01:24:13.590
01:29:53.805 : en:01:29:53.805
01:37:27.717 : en:01:37:27.717
01:44:36.562 : en:01:44:36.562
01:54:17.851 : en:01:54:17.851

Скриншоты

Авторство группы

[Цитировать]



Показать сообщения:    

Текущее время: 10-Дек 11:51

Часовой пояс: UTC + 3


Вы не можете начинать темы
Вы не можете отвечать на сообщения
Вы не можете редактировать свои сообщения
Вы не можете удалять свои сообщения
Вы не можете голосовать в опросах
Вы не можете прикреплять файлы к сообщениям
Вы не можете скачивать файлы

!ВНИМАНИЕ!
Сайт не предоставляет электронные версии произведений, а занимается лишь коллекционированием и каталогизацией ссылок, присылаемых и публикуемых на форуме нашими читателями. Если вы являетесь правообладателем какого-либо представленного материала и не желаете, чтобы ссылка на него находилась в нашем каталоге, свяжитесь с нами, и мы незамедлительно удалим ее. Файлы для обмена на трекере предоставлены пользователями сайта, и администрация не несет ответственности за их содержание. Просьба не заливать файлы, защищенные авторскими правами, а также файлы нелегального содержания!