[ Сегодня идет свободное скачивание без начисления Download ]


Статистика раздачи
Нет
 
   
 
Top  
 
 
Строго на запад / Slow West (2015) BDRip - Производство: Великобритания / DMC Film
Жанр: Боевик, Вестерн, Триллер
Режиссер: Джон Маклин / John Maclean
Продюсер: Эйн Каннинг / Iain Canning, Рэйчел Гарднер / Rachel Gardner, Конор МакКохан / Conor McCaughan
Актеры: Коди Смит-МакФи (Jay Cavendish), Майкл Фассбендер (Silas Selleck), Бен Мендельсон (Payne), Aorere Paki (Young Native Boy), Хейден Фрост (Young Soldier 1), Карен Писториус (Rose Ross), Kieran Charnock (Young Soldier 2), Эдвин Райт (Victor the Hawk), Joseph Passi (Congolese Singer 1), Эндрю Робертт (Werner), Сэм Манзанза (Congolese Singer 2), Таванда Маниймо (Congolese Singer 3)
Описание:
История авантюриста по имени Сайлас, сопровождающего в опасном путешествии вдоль всей американской границы 16-летнего паренька по имени Джей Кавендиш. Джей разыскивает девушку, в которую влюблен. Они пересеклись случайно, одинокий волк, отбившийся от волчьей стаи и заяц, оказавшийся в волчьем логове. Он мог дать ему умереть, мог убить, но не вцепился в горло, а пошёл с ним по следу, помогая найти затаившуюся где-то любовь, провожая через поля ненависти и леса страха, твёрдо, не решив, что делать дальше с ним и с собой.
Сэмпл
Возраст: 16+
Рейтинг MPAA: R

Дата мировой премьеры: 24 января 2015
Дата премьеры в России: 21 января 2016, «Кинологистика»

Продолжительность: 01:23:05
Качество видео: BDRip
Перевод: Дублированный
Озвучка / Автор перевода: iTunes
Вид субтитров: Отсутствуют
Реклама: Отсутствует
Видео: Xvid, 720x432 (1.67:1), ~2059 kbps
Аудио: AC3, 6 ch, 384 kbps

Mediainfo:

General
Complete name                            : D:\Фильмы\Medlennyj.zapad.2015.D.BDRip_by_Twi7ter.avi
Format                                   : AVI
Format/Info                              : Audio Video Interleave
File size                                : 1.42 GiB
Duration                                 : 1h 23mn
Overall bit rate                         : 2 451 Kbps
Movie name                               : Medlennyj.zapad.2015.D.BDRip_by_Twi7ter
Director                                 : Twi7ter
Genre                                    : Action/Thriller/Western
Writing application                      : VirtualDubMod 1.5.10.3 (build 2550/release)
Original source form/Name                : Movie
Video
ID                                       : 0
Format                                   : MPEG-4 Visual
Format profile                           : Advanced Simple@L5
Format settings, BVOP                    : 2
Format settings, QPel                    : No
Format settings, GMC                     : No warppoints
Format settings, Matrix                  : Custom
Codec ID                                 : XVID
Codec ID/Hint                            : XviD
Duration                                 : 1h 23mn
Bit rate                                 : 2 058 Kbps
Width                                    : 720 pixels
Height                                   : 432 pixels
Display aspect ratio                     : 5:3
Frame rate                               : 24.000 fps
Color space                              : YUV
Chroma subsampling                       : 4:2:0
Bit depth                                : 8 bits
Scan type                                : Progressive
Compression mode                         : Lossy
Bits/(Pixel*Frame)                       : 0.276
Stream size                              : 1.19 GiB (84%)
Writing library                          : XviD 73
Audio
ID                                       : 1
Format                                   : AC-3
Format/Info                              : Audio Coding 3
Mode extension                           : CM (complete main)
Format settings, Endianness              : Big
Codec ID                                 : 2000
Duration                                 : 1h 22mn
Bit rate mode                            : Constant
Bit rate                                 : 384 Kbps
Channel(s)                               : 6 channels
Channel positions                        : Front: L C R, Side: L R, LFE
Sampling rate                            : 48.0 KHz
Frame rate                               : 31.250 fps (1536 spf)
Compression mode                         : Lossy
Stream size                              : 228 MiB (16%)
Alignment                                : Split accross interleaves
Interleave, duration                     : 42 ms (1.00 video frame)
Interleave, preload duration             : 500 ms

Награды:

Сандэнс, 2015 год
Победитель (1):
- Гран-при в категории «Драматический фильм» (Программа «Мировое кино»)
Европейская киноакадемия, 2015 год
Номинации (1):
- Европейское открытие года (Джон Маклин)

Знаете ли вы, что...

- Первоначально фильм планировали снимать на 35-мм пленку, однако в итоге сняли на «цифру».
- Съемки фильма проходили в Твайзеле, в Новой Зеландии.
- Это первый игровой полнометражный фильм режиссёра Джона Маклина.
Скриншоты:

[Цитировать]

Топик был перенесен из форума Новинки кинопроката в форум Боевик
Henkok



Показать сообщения:    

Текущее время: 11-Дек 09:09

Часовой пояс: UTC + 3


Вы не можете начинать темы
Вы не можете отвечать на сообщения
Вы не можете редактировать свои сообщения
Вы не можете удалять свои сообщения
Вы не можете голосовать в опросах
Вы не можете прикреплять файлы к сообщениям
Вы не можете скачивать файлы

!ВНИМАНИЕ!
Сайт не предоставляет электронные версии произведений, а занимается лишь коллекционированием и каталогизацией ссылок, присылаемых и публикуемых на форуме нашими читателями. Если вы являетесь правообладателем какого-либо представленного материала и не желаете, чтобы ссылка на него находилась в нашем каталоге, свяжитесь с нами, и мы незамедлительно удалим ее. Файлы для обмена на трекере предоставлены пользователями сайта, и администрация не несет ответственности за их содержание. Просьба не заливать файлы, защищенные авторскими правами, а также файлы нелегального содержания!