[ Today is free to download without increasing Download ]

DL-List and Torrent activity
-Мебель Версаля. От Короля-Солнце до Великой французской революции / Le Mobilier de Versailles- Год выпуска: 2014
Страна: Франция, ARTE France, A Prime Group
Жанр: Документальный, история
Продолжительность: 00:52:00
Перевод: Профессиональный (двухголосый, закадровый)
Режиссер: Фабрис Урлье / Fabrice Hourlier-Описание:-Версаль - один из выдающихся архитектурных ансамблей в мировой истории. Он представляет собой в наивысшей степени яркое произведение в стиле французского классицизма XVII века. Над этим ансамблем работала группа самых блистательных мастеров. Фильм французского режиссера Фабриса Урлье расскажет об истории мебели самого значительного и великолепного королевского дворца в контексте различных эпох.-Качество: SATRip
Формат: AVI
Видео кодек: XviD
Аудио кодек: AC3
Видео: 720x400 25fps ~1800 Kbps
Аудио: AC3 2ch, 48kHz, 192 kbps-


Format : AVI
Format/Info : Audio Video Interleave
File size : 744 MiB
Duration : 51mn 59s
Overall bit rate : 1 999 Kbps
Writing application : TMPGEnc Video Mastering Works 5 Version.
Writing library : TMPGEnc Video Mastering Works 5 Version.
ID : 0
Format : MPEG-4 Visual
Format profile : Advanced Simple@L5
Format settings, BVOP : 2
Format settings, QPel : No
Format settings, GMC : No warppoints
Format settings, Matrix : Default (H.263)
Muxing mode : Packed bitstream
Codec ID : XVID
Codec ID/Hint : XviD
Duration : 51mn 59s
Bit rate : 1 800 Kbps
Width : 720 pixels
Height : 400 pixels
Display aspect ratio : 16:9
Frame rate : 25.000 fps
Color space : YUV
Chroma subsampling : 4:2:0
Bit depth : 8 bits
Scan type : Progressive
Compression mode : Lossy
Bits/(Pixel*Frame) : 0.250
Stream size : 669 MiB (90%)
Writing library : XviD 73
ID : 1
Format : AC-3
Format/Info : Audio Coding 3
Mode extension : CM (complete main)
Format settings, Endianness : Big
Codec ID : 2000
Duration : 51mn 59s
Bit rate mode : Constant
Bit rate : 192 Kbps
Channel(s) : 2 channels
Channel positions : Front: L R
Sampling rate : 48.0 KHz
Bit depth : 16 bits
Compression mode : Lossy
Stream size : 71.4 MiB (10%)
Alignment : Aligned on interleaves
Interleave, duration : 240 ms (6.00 video frames)
Interleave, preload duration : 224 ms



Display posts:    

Current time is: 24-Oct 01:10

All times are UTC + 3

You cannot post new topics in this forum
You cannot reply to topics in this forum
You cannot edit your posts in this forum
You cannot delete your posts in this forum
You cannot vote in polls in this forum
You cannot attach files in this forum
You cannot download files in this forum

The site does not give electronic versions of products, and is engaged only in a collecting and cataloguing of the references sent and published at a forum by our readers. If you are the legal owner of any submitted material and do not wish that the reference to it was in our catalogue, contact us and we shall immediately remove her. Files for an exchange on tracker are given by users of a site, and the administration does not bear the responsibility for their maintenance. The request to not fill in the files protected by copyrights, and also files of the illegal maintenance!