[ Сегодня идет свободное скачивание без начисления Download ]


Статистика раздачи
Нет
 
   
 
Top  
 
 
Эон Флакс / AEon Flux
Информация о фильме
Русское название: Эон Флакс
Оригинальное название: AEon Flux
Год выхода: 2005
Жанр: фантастика, боевик, триллер, приключения
Режиссер: Карин Кусама
Выпущено: США
Продолжительность: 01:32:51
Перевод: Дублированный
В ролях: Шарлиз Терон, Мартон Чокаш, Джонни Ли Миллер, Софи Оконедо, Фрэнсис МакДорманд, Пит Постлетуэйт, Амелия Уорнер, Кэролайн Чикези, Николай Кински
Сюжет фильма
В 25-ом веке свирепый вирус уничтожил большую часть человечества, а оставшихся в живых заставил изолироваться в одном-единственном городе, защищенном специальным куполом.
Именно там действует таинственный агент Иэн Флакс, мотивы которой необъяснимы, а главной целью является видный политический деятель…
Файл
Качество: BDRip 720p (исходник Blu-ray Disc)
Контейнер: MKV (расширение файла)
Видео: 1280x544, 6293 Кбит/сек, 59.940 кадр/сек, AVC, x264, High@L4.1, 2.35:1, 0.151 Бит/[Пиксели*Кадры]
Аудио 1: AC-3, 448 Кбит/сек, 6 канала(ов), 48,0 КГц - Дублированный / Русский
Аудио 2: AC-3, 640 Кбит/сек, 6 канала(ов), 48,0 КГц - Оригинал / Английский
Субтитры: Русские | Полные, Английские | Полные
Форсированные субтитры: Нет
Чаптеры (Главы): Есть

Автор Рипа:

MediaInfo

Format : Matroska
Format version : Version 2
File size : 4.88 GiB
Duration : 1h 32mn
Overall bit rate : 7 531 Kbps
Movie name : Эон Флакс.(2005).BDRip.720p.[envy].[60fps]
Encoded date : UTC 2016-02-09 13:32:26
Writing application : mkvmerge v5.8.0 ('No Sleep / Pillow') built on Sep 2 2012 15:37:04
Writing library : libebml v1.2.3 + libmatroska v1.3.0
Video
ID : 1
Format : AVC
Format/Info : Advanced Video Codec
Format profile : High@L4.1
Format settings, CABAC : Yes
Format settings, ReFrames : 9 frames
Codec ID : V_MPEG4/ISO/AVC
Duration : 1h 32mn
Bit rate : 6 293 Kbps
Width : 1 280 pixels
Height : 544 pixels
Display aspect ratio : 2.35:1
Frame rate mode : Constant
Frame rate : 59.880 fps
Original frame rate : 59.940 fps
Color space : YUV
Chroma subsampling : 4:2:0
Bit depth : 8 bits
Scan type : Progressive
Bits/(Pixel*Frame) : 0.151
Stream size : 4.08 GiB (84%)
Title : Эон Флакс.(2005).BDRip.720p.[envy].[60fps]
Writing library : x264 core 146 r2538 121396c
Encoding settings : cabac=1 / ref=9 / deblock=1:0:0 / analyse=0x3:0x113 / me=umh / subme=10 / psy=1 / psy_rd=1.00:0.00 / mixed_ref=1 / me_range=24 / chroma_me=1 / trellis=2 / 8x8dct=1 / cqm=0 / deadzone=21,11 / fast_pskip=0 / chroma_qp_offset=-2 / threads=12 / lookahead_threads=1 / sliced_threads=0 / nr=0 / decimate=1 / interlaced=0 / bluray_compat=0 / constrained_intra=0 / bframes=5 / b_pyramid=2 / b_adapt=2 / b_bias=0 / direct=3 / weightb=1 / open_gop=0 / weightp=2 / keyint=250 / keyint_min=25 / scenecut=40 / intra_refresh=0 / rc_lookahead=40 / rc=crf / mbtree=0 / crf=18.0 / qcomp=0.60 / qpmin=0 / qpmax=69 / qpstep=4 / vbv_maxrate=14000 / vbv_bufsize=14000 / crf_max=0.0 / nal_hrd=none / filler=0 / ip_ratio=1.40 / pb_ratio=1.30 / aq=3:1.00
Language : English
Default : Yes
Forced : No
Audio #1
ID : 2
Format : AC-3
Format/Info : Audio Coding 3
Mode extension : CM (complete main)
Format settings, Endianness : Big
Codec ID : A_AC3
Duration : 1h 32mn
Bit rate mode : Constant
Bit rate : 448 Kbps
Channel(s) : 6 channels
Channel positions : Front: L C R, Side: L R, LFE
Sampling rate : 48.0 KHz
Compression mode : Lossy
Stream size : 298 MiB (6%)
Title : Dub
Language : Russian
Default : Yes
Forced : No
Audio #2
ID : 3
Format : AC-3
Format/Info : Audio Coding 3
Mode extension : CM (complete main)
Format settings, Endianness : Big
Codec ID : A_AC3
Duration : 1h 32mn
Bit rate mode : Constant
Bit rate : 640 Kbps
Channel(s) : 6 channels
Channel positions : Front: L C R, Side: L R, LFE
Sampling rate : 48.0 KHz
Compression mode : Lossy
Stream size : 425 MiB (8%)
Title : Eng
Language : English
Default : No
Forced : No
Text #1
ID : 4
Format : UTF-8
Codec ID : S_TEXT/UTF8
Codec ID/Info : UTF-8 Plain Text
Title : Rus full
Language : Russian
Default : No
Forced : No
Text #2
ID : 5
Format : UTF-8
Codec ID : S_TEXT/UTF8
Codec ID/Info : UTF-8 Plain Text
Title : Eng full
Language : English
Default : No
Forced : No
Menu
00:00:00.000 : :Chapter 01
00:03:43.264 : :Chapter 02
00:05:27.784 : :Chapter 03
00:07:27.530 : :Chapter 04
00:09:48.753 : :Chapter 05
00:11:34.693 : :Chapter 06
00:14:50.388 : :Chapter 07
00:18:12.965 : :Chapter 08
00:19:22.786 : :Chapter 09
00:22:08.493 : :Chapter 10
00:24:17.455 : :Chapter 11
00:26:32.172 : :Chapter 12
00:29:07.829 : :Chapter 13
00:31:02.986 : :Chapter 14
00:33:25.878 : :Chapter 15
00:36:20.011 : :Chapter 16
00:38:10.871 : :Chapter 17
00:42:48.357 : :Chapter 18
00:43:34.987 : :Chapter 19
00:44:40.093 : :Chapter 20
00:48:05.966 : :Chapter 21
00:50:32.112 : :Chapter 22
00:52:23.640 : :Chapter 23
00:54:07.786 : :Chapter 24
00:59:31.901 : :Chapter 25
01:00:22.743 : :Chapter 26
01:02:47.305 : :Chapter 27
01:04:47.383 : :Chapter 28
01:06:50.673 : :Chapter 29
01:08:09.376 : :Chapter 30
01:08:25.934 : :Chapter 31
01:10:44.740 : :Chapter 32
01:15:08.628 : :Chapter 33
01:21:09.447 : :Chapter 34
01:24:23.474 : :Chapter 35
01:25:49.852 : :Chapter 36

Скриншоты

[Цитировать]



Показать сообщения:    

Текущее время: 10-Дек 00:20

Часовой пояс: UTC + 3


Вы не можете начинать темы
Вы не можете отвечать на сообщения
Вы не можете редактировать свои сообщения
Вы не можете удалять свои сообщения
Вы не можете голосовать в опросах
Вы не можете прикреплять файлы к сообщениям
Вы не можете скачивать файлы

!ВНИМАНИЕ!
Сайт не предоставляет электронные версии произведений, а занимается лишь коллекционированием и каталогизацией ссылок, присылаемых и публикуемых на форуме нашими читателями. Если вы являетесь правообладателем какого-либо представленного материала и не желаете, чтобы ссылка на него находилась в нашем каталоге, свяжитесь с нами, и мы незамедлительно удалим ее. Файлы для обмена на трекере предоставлены пользователями сайта, и администрация не несет ответственности за их содержание. Просьба не заливать файлы, защищенные авторскими правами, а также файлы нелегального содержания!