[ Сегодня идет свободное скачивание без начисления Download ]


Статистика раздачи
Нет
 
   
 
Top  
 
 
Охота на монстра / Monster Hunt (2015) BDRip [H.264/720p] [hand made 60fps]«...»- Производство: Китай, Гонконг / EDKO Film Ltd.
Жанр: Фэнтези, боевик, комедия
Режиссер: Раман Хюи
Продюсер: Чунг Мэн Йи, Алань Юйэнь, Йуан Каи
Актёры: Байхэ Бай, Цзин Божань, У Цзян, Илэйн Цзинь, Уоллес Чунг, Эрик Цан, Сандра Кван Юе Нг, Тан Вэй, Яо Чэнь, Ни Янь
Описание:
Когда-то давно люди и демоны мирно сосуществовали, но затем человеческая жадность привела род демонов на грань исчезновения…
Плодом страсти обычного парня Инь Тяня и таинственной незнакомки становится малыш, которому предначертано занять трон короля демонов. Теперь странноватой парочке придется защищать свое чадо от злых демонов и коварных людей. Главным их врагом становится жестокий и алчный Цянь Ху Гэ, стремящийся пленить будущего короля, чтобы обрести безмерную силу.

Дата мировой премьеры: 16 июля 2015
Дата российской премьеры: 10 декабря 2015, «Централ Партнершип»
Продолжительность: 01:57:04
Качество видео: BDRip 720p (profile-LQ)
Перевод: Дублированный (iTunes)
Субтитры: Вшитые, не отключаемые
Язык субтитров: Русский (песни) от BLUEBIRD
Видеокодек: MPEG-4 AVC/H.264
Битрейт видео: ~ 8284 Kbps
Размер кадра: 1280 x 536
Аудио: AC3 5.1, 48.0 KHz, 384 kbps - Русский

MediaInfo:

Общее
Уникальный идентификатор : 196522547883766274295068086414693585800 (0x93D8DDB0519F7FD58DB5B250A3535388)
Полное имя : E:\Торренты\Monster Hunt 60fps.mkv
Формат : Matroska
Версия формата : Version 2
Размер файла : 7,23 Гбайт
Продолжительность : 1 ч. 57 м.
Общий поток : 8844 Кбит/сек
Дата кодирования : UTC 2016-02-11 11:42:27
Программа кодирования : mkvmerge v6.1.0 ('Old Devil') built on Mar 4 2013 09:10:42
Библиотека кодирования : libebml v1.3.0 + libmatroska v1.4.0
Видео
Идентификатор : 1
Формат : AVC
Формат/Информация : Advanced Video Codec
Профиль формата : [email protected]
Параметр CABAC формата : Да
Параметр ReFrames формата : 6 кадров
Идентификатор кодека : V_MPEG4/ISO/AVC
Продолжительность : 1 ч. 57 м.
Битрейт : 8284 Кбит/сек
Ширина : 1280 пикселей
Высота : 536 пикселей
Соотношение сторон : 2,40:1
Режим частоты кадров : Постоянный
Частота кадров : 59,940 (59940/1000) кадров/сек
Цветовое пространство : YUV
Субдискретизация насыщенности : 4:2:0
Битовая глубина : 8 бит
Тип развёртки : Прогрессивная
Бит/(Пиксели*Кадры) : 0.201
Размер потока : 6,77 Гбайт (94%)
Библиотека кодирования : x264 core 130 r2273 b3065e6
Настройки программы : cabac=1 / ref=6 / deblock=1:0:0 / analyse=0x3:0x133 / me=umh / subme=8 / psy=1 / psy_rd=1.00:0.15 / mixed_ref=1 / me_range=20 / chroma_me=1 / trellis=2 / 8x8dct=1 / cqm=0 / deadzone=21,11 / fast_pskip=0 / chroma_qp_offset=-3 / threads=6 / lookahead_threads=2 / sliced_threads=0 / nr=0 / decimate=0 / interlaced=0 / bluray_compat=0 / constrained_intra=0 / bframes=8 / b_pyramid=2 / b_adapt=2 / b_bias=0 / direct=1 / weightb=1 / open_gop=0 / weightp=2 / keyint=250 / keyint_min=25 / scenecut=40 / intra_refresh=0 / rc=crf / mbtree=0 / crf=17.5 / qcomp=0.63 / qpmin=10 / qpmax=51 / qpstep=4 / ip_ratio=1.40 / pb_ratio=1.30 / aq=2:1.20
Default : Да
Forced : Нет
Аудио
Идентификатор : 2
Формат : AC-3
Формат/Информация : Audio Coding 3
Расширение режима : CM (complete main)
Параметр Endianness формата : Big
Идентификатор кодека : A_AC3
Продолжительность : 1 ч. 57 м.
Вид битрейта : Постоянный
Битрейт : 384 Кбит/сек
Каналы : 6 каналов
Расположение каналов : Front: L C R, Side: L R, LFE
Частота : 48,0 КГц
Частота кадров : 31,250 кадров/сек (1536 spf)
Метод сжатия : С потерями
Размер потока : 322 Мбайт (4%)
Default : Да
Forced : Нет

Скриншоты

[Цитировать]



Показать сообщения:    

Текущее время: 06-Дек 22:55

Часовой пояс: UTC + 3


Вы не можете начинать темы
Вы не можете отвечать на сообщения
Вы не можете редактировать свои сообщения
Вы не можете удалять свои сообщения
Вы не можете голосовать в опросах
Вы не можете прикреплять файлы к сообщениям
Вы не можете скачивать файлы

!ВНИМАНИЕ!
Сайт не предоставляет электронные версии произведений, а занимается лишь коллекционированием и каталогизацией ссылок, присылаемых и публикуемых на форуме нашими читателями. Если вы являетесь правообладателем какого-либо представленного материала и не желаете, чтобы ссылка на него находилась в нашем каталоге, свяжитесь с нами, и мы незамедлительно удалим ее. Файлы для обмена на трекере предоставлены пользователями сайта, и администрация не несет ответственности за их содержание. Просьба не заливать файлы, защищенные авторскими правами, а также файлы нелегального содержания!