[ Сегодня идет свободное скачивание без начисления Download ]


Статистика раздачи
Нет
 
   
 
Top  
 
 
«Get out undead or alive»- Информация о фильме
Название: Хватай и беги
Оригинальное название: Freaks of Nature
Год выхода: 2015
Жанр: ужасы, комедия
Режиссер: Робби Пикеринг
Сценарий: Орен Узил
Продюсер: Мэттью Толмак, Рон Шмидт, Бен Уайсбрен
Роли озвучивали: Николас Браун, Маккензи Дэвис, Джош Фэйдем, Дэнис Лири, Эд Вествик, Ванесса Энн Хадженс, Кигэн-Майкл Ки, Боб Оденкёрк, Крис Зилка
О фильме:
Сюжет расскажет о группе учеников старших классов, атакованных зомби. Пока ничего необычного. Однако в то время как школьники спасаются бегством, зомби подвергаются нападению вампиров. Все становится еще веселее, когда на Землю высаживаются инопланетяне. Теперь школьникам придется объединиться с зомби и вампирами, чтобы остановить вторжение на нашу планету.

Страна: США, Columbia Pictures, Sony Pictures Entertainment (SPE)
Продолжительность: 01:32:36
Файл
Кодек: MPEG4/ISO/AVC H.264
Формат: MKV
Качество: BDRip 1080p | 60fps
Видео: 1920x800 | 59.940 fps | ~4.0 Мбит/сек
Аудио: AC3 |5.1| 48 kHz | 448 Kbps | 16 bit | Профессиональное (многоголосый, закадровый)

MedifInfo

Video
ID : 1
Format : Matroska
Format version : Version 4 / Version 2
File size : 2.87 GiB
Duration : 1h 32mn
Overall bit rate : 4 434 Kbps
Movie name : By MeZZAPT
Encoded date : UTC 2016-02-13 06:47:35
Writing application : mkvmerge v7.0.0 ('Where We Going') 64bit built on Jun 9 2014 15:16:27
Writing library : libebml v1.3.0 + libmatroska v1.4.1
Cover : Yes
Attachments : Cover.jpg
Video
ID : 1
Format : AVC
Format/Info : Advanced Video Codec
Format profile : Main@L4.1
Format settings, CABAC : Yes
Format settings, ReFrames : 4 frames
Codec ID : V_MPEG4/ISO/AVC
Duration : 1h 32mn
Bit rate : 4 000 Kbps
Width : 1 920 pixels
Height : 800 pixels
Display aspect ratio : 2.40:1
Frame rate mode : Constant
Frame rate : 59.940 fps
Color space : YUV
Chroma subsampling : 4:2:0
Bit depth : 8 bits
Scan type : Progressive
Bits/(Pixel*Frame) : 0.043
Stream size : 2.58 GiB (90%)
Title : By MeZZAPT
Writing library : x264 core 146 r2538 121396c
Encoding settings : cabac=1 / ref=1 / deblock=1:0:0 / analyse=0x1:0 / me=dia / subme=2 / psy=1 / psy_rd=1.00:0.10 / mixed_ref=0 / me_range=16 / chroma_me=1 / trellis=0 / 8x8dct=0 / cqm=0 / deadzone=21,11 / fast_pskip=1 / chroma_qp_offset=0 / threads=6 / lookahead_threads=6 / sliced_threads=0 / nr=0 / decimate=1 / interlaced=0 / bluray_compat=0 / constrained_intra=0 / bframes=16 / b_pyramid=2 / b_adapt=2 / b_bias=0 / direct=3 / weightb=1 / open_gop=0 / weightp=2 / keyint=250 / keyint_min=25 / scenecut=40 / intra_refresh=0 / rc_lookahead=40 / rc=abr / mbtree=0 / bitrate=4000 / ratetol=1.0 / qcomp=0.60 / qpmin=0 / qpmax=69 / qpstep=4 / vbv_maxrate=14000 / vbv_bufsize=14000 / nal_hrd=none / filler=0 / ip_ratio=1.40 / pb_ratio=1.30 / aq=1:1.00
Language : English
Default : Yes
Forced : No
Audio
ID : 2
Format : AC-3
Format/Info : Audio Coding 3
Mode extension : CM (complete main)
Format settings, Endianness : Big
Codec ID : A_AC3
Duration : 1h 32mn
Bit rate mode : Constant
Bit rate : 448 Kbps
Channel(s) : 6 channels
Channel positions : Front: L C R, Side: L R, LFE
Sampling rate : 48.0 KHz
Frame rate : 31.250 fps (1536 spf)
Compression mode : Lossy
Stream size : 297 MiB (10%)
Title : By MeZZAPT
Language : Russian
Default : No
Forced : No

[Цитировать]



Показать сообщения:    

Текущее время: 09-Дек 20:33

Часовой пояс: UTC + 3


Вы не можете начинать темы
Вы не можете отвечать на сообщения
Вы не можете редактировать свои сообщения
Вы не можете удалять свои сообщения
Вы не можете голосовать в опросах
Вы не можете прикреплять файлы к сообщениям
Вы не можете скачивать файлы

!ВНИМАНИЕ!
Сайт не предоставляет электронные версии произведений, а занимается лишь коллекционированием и каталогизацией ссылок, присылаемых и публикуемых на форуме нашими читателями. Если вы являетесь правообладателем какого-либо представленного материала и не желаете, чтобы ссылка на него находилась в нашем каталоге, свяжитесь с нами, и мы незамедлительно удалим ее. Файлы для обмена на трекере предоставлены пользователями сайта, и администрация не несет ответственности за их содержание. Просьба не заливать файлы, защищенные авторскими правами, а также файлы нелегального содержания!