[ Сегодня идет свободное скачивание без начисления Download ]


Статистика раздачи
Нет
 
   
 
Top  
 
 
Бодибилдер / Bodybuilder (2014) BDRip - Производство: Франция / Hole In One Films, Mars Films, Rhône-Alpes Cinéma
Жанр: Драма
Режиссер: Рошди Зем
Продюсер: Рошди Зем, Мартин Кассинелли
Актеры: Венсан Ротье, Марина Фоис, Николя Дювошель, Рошди Зем, Адель Беншериф, Доминик Реймон
Описание:
Антуан Морель – из тех парней, что вечно концентрирует вокруг себя проблемы. Он связался с бандой головорезов, и теперь должен им кругленькую сумму. Бандиты ворвались в квартиру Антуана и разгромили ее. К счастью, самому Морелю удалось бежать и спрятаться в интернет-кафе, где он остался незамеченным. Мать Антуана устала от выходок своего непутевого сына – она и так два года копила деньги, чтобы выплатить его долги. Ей надоело покрывать преступника, и она настоятельно просит его наконец-то устроиться на работу и дать ей спокойно пожить.
Дата мировой премьеры: 25 августа 2014
Продолжительность: 01:39:43
Качество видео: BDRip Сэмпл
Перевод: Многоголосый закадровый, профессиональный
Озвучка / Автор перевода: Официальный звук
Вид субтитров: Отсутствуют
Видео: AVC/H.264, 1280x544, 4496 Кбит/с
Аудио 1: AC3, 2 ch, 192 Кбит/с - Русский | Многоголосый закадровый, профессиональный
Аудио 2: DTS, 6 ch, 1510 Кбит/с - Французский | Оригинал

Mediainfo:

General
Unique ID                                : 207448482276681667963775117393380487212 (0x9C111FD83F85727E9E1F15CB3CB7B02C)
Complete name                            : D:\Фильмы\Bodybilder.2014.P.BDRip.720p.mkv
Format                                   : Matroska
Format version                           : Version 4 / Version 2
File size                                : 4.50 GiB
Duration                                 : 1h 44mn
Overall bit rate                         : 6 198 Kbps
Encoded date                             : UTC 2016-02-13 12:02:28
Writing application                      : mkvmerge v6.8.0 ('Theme for Great Cities') 64bit built on Mar  2 2014 21:34:26
Writing library                          : libebml v1.3.0 + libmatroska v1.4.1
Video
ID                                       : 1
Format                                   : AVC
Format/Info                              : Advanced Video Codec
Format profile                           : High@L4.1
Format settings, CABAC                   : Yes
Format settings, ReFrames                : 5 frames
Codec ID                                 : V_MPEG4/ISO/AVC
Duration                                 : 1h 44mn
Bit rate                                 : 4 496 Kbps
Width                                    : 1 280 pixels
Height                                   : 544 pixels
Display aspect ratio                     : 2.35:1
Frame rate mode                          : Constant
Frame rate                               : 24.000 fps
Color space                              : YUV
Chroma subsampling                       : 4:2:0
Bit depth                                : 8 bits
Scan type                                : Progressive
Bits/(Pixel*Frame)                       : 0.269
Stream size                              : 3.18 GiB (71%)
Writing library                          : x264 core 144 r2525 40bb568
Encoding settings                        : cabac=1 / ref=5 / deblock=1:0:0 / analyse=0x3:0x113 / me=umh / subme=8 / psy=1 / psy_rd=1.00:0.00 / mixed_ref=1 / me_range=16 / chroma_me=1 / trellis=1 / 8x8dct=1 / cqm=0 / deadzone=21,11 / fast_pskip=1 / chroma_qp_offset=-2 / threads=18 / lookahead_threads=3 / sliced_threads=0 / nr=0 / decimate=1 / interlaced=0 / bluray_compat=0 / constrained_intra=0 / bframes=3 / b_pyramid=2 / b_adapt=2 / b_bias=0 / direct=3 / weightb=1 / open_gop=0 / weightp=2 / keyint=240 / keyint_min=24 / scenecut=40 / intra_refresh=0 / rc_lookahead=50 / rc=2pass / mbtree=1 / bitrate=4496 / ratetol=1.0 / qcomp=0.60 / qpmin=0 / qpmax=69 / qpstep=4 / cplxblur=20.0 / qblur=0.5 / ip_ratio=1.40 / aq=1:1.00
Language                                 : English
Default                                  : Yes
Forced                                   : No
Audio #1
ID                                       : 2
Format                                   : AC-3
Format/Info                              : Audio Coding 3
Mode extension                           : CM (complete main)
Format settings, Endianness              : Big
Codec ID                                 : A_AC3
Duration                                 : 1h 44mn
Bit rate mode                            : Constant
Bit rate                                 : 192 Kbps
Channel(s)                               : 2 channels
Channel positions                        : Front: L R
Sampling rate                            : 48.0 KHz
Frame rate                               : 31.250 fps (1536 spf)
Compression mode                         : Lossy
Stream size                              : 143 MiB (3%)
Language                                 : Russian
Default                                  : Yes
Forced                                   : Yes
Audio #2
ID                                       : 3
Format                                   : DTS
Format/Info                              : Digital Theater Systems
Mode                                     : 16
Format settings, Endianness              : Big
Codec ID                                 : A_DTS
Duration                                 : 1h 44mn
Bit rate mode                            : Constant
Bit rate                                 : 1 509 Kbps
Channel(s)                               : 6 channels
Channel positions                        : Front: L C R, Side: L R, LFE
Sampling rate                            : 48.0 KHz
Frame rate                               : 93.750 fps (512 spf)
Bit depth                                : 24 bits
Compression mode                         : Lossy
Stream size                              : 1.10 GiB (24%)
Title                                    : French DTS 1509kbps
Language                                 : French
Default                                  : No
Forced                                   : No
Menu
00:00:00.000                             : en:00:00:00.000
00:15:02.625                             : en:00:15:02.625
00:30:24.708                             : en:00:30:24.708
00:45:46.917                             : en:00:45:46.917
01:00:41.208                             : en:01:00:41.208
01:14:33.750                             : en:01:14:33.750
01:29:19.917                             : en:01:29:19.917
01:40:07.000                             : en:01:40:07.000
Скриншоты:

[Цитировать]



Показать сообщения:    

Текущее время: 26-Фев 22:12

Часовой пояс: UTC + 3


Вы не можете начинать темы
Вы не можете отвечать на сообщения
Вы не можете редактировать свои сообщения
Вы не можете удалять свои сообщения
Вы не можете голосовать в опросах
Вы не можете прикреплять файлы к сообщениям
Вы не можете скачивать файлы

!ВНИМАНИЕ!
Сайт не предоставляет электронные версии произведений, а занимается лишь коллекционированием и каталогизацией ссылок, присылаемых и публикуемых на форуме нашими читателями. Если вы являетесь правообладателем какого-либо представленного материала и не желаете, чтобы ссылка на него находилась в нашем каталоге, свяжитесь с нами, и мы незамедлительно удалим ее. Файлы для обмена на трекере предоставлены пользователями сайта, и администрация не несет ответственности за их содержание. Просьба не заливать файлы, защищенные авторскими правами, а также файлы нелегального содержания!