[ Сегодня идет свободное скачивание без начисления Download ]


Статистика раздачи
Нет
 
   
 
Top  
 
 
Голоса большой страны (2016) WEB-DL [H.264/720p-LQ]- Производство: Россия, Enjoy Movies
Жанр: Мьюзикл, комедия, мелодрама
Режиссер: Таир Мамедов
Продюсер: Антон Беляев, Владимир Поляков, Виктория Лихтина
Актеры: Алена Тойминцева, Андрей Гризли, Егор Сесарев, Тина Кузнецова, Антон Беляев, Мариам Мерабова, Ярослав Дронов, Илья Киреев, Виктория Жук, Анжелика Фролова
Описание:
В каждом уголке нашей огромной родины есть талантливые люди, достойные признания и славы. Они слетаются в столицу и принимают участие в популярных телевизионных шоу. Но свет софитов гаснет, а жизнь продолжается. И не так, как им это виделось…
Каждому из наших героев — юных и взрослых, амбициозных и скромных, одиноких и влюбленных — придется пройти через многие испытания. Их ждут взлеты и падения, встречи и расставания, дружба и предательство. Но в итоге они станут одной большой командой, семьей, объединившей разных людей из самых отдаленных городков нашей большой страны, во имя музыки, таланта и, конечно же, любви!
Сэмпл
Дата премьеры в России: 7 января 2016, «Каропрокат»
Продолжительность: 01:41:09
Качество видео: WEB-DL
Перевод: Не требуется (русский) iTunes
Субтитры: Отсутствуют
Видео: AVC/H.264, 1280x536, ~3909 kbps
Аудио: AC3, 6 ch, 384 kbps

Mediainfo:

Общее
Уникальный идентификатор                 : 181552488747342182765120797258422049111 (0x8895BCC9E4C92BBBA785EB96F7AA5957)
Полное имя                               : Голоса большой страны (2016) 720p.mkv
Формат                                   : Matroska
Версия формата                           : Version 2
Размер файла                             : 3,09 Гбайт
Продолжительность                        : 1 ч. 41 м.
Общий поток                              : 4380 Кбит/сек
Название фильма                          : Golosa Bolshoy Strany (2016) - Release for HDCLUB
Дата кодирования                         : UTC 2016-02-13 19:33:19
Программа кодирования                    : mkvmerge v3.4.0 ('Rapunzel') built on May 15 2010 09:38:20
Библиотека кодирования                   : libebml v0.8.0 + libmatroska v0.9.0
Видео
Идентификатор                            : 1
Формат                                   : AVC
Формат/Информация                        : Advanced Video Codec
Профиль формата                          : Main@L3.1
Параметр CABAC формата                   : Нет
Параметр ReFrames формата                : 2 кадра
Идентификатор кодека                     : V_MPEG4/ISO/AVC
Продолжительность                        : 1 ч. 41 м.
Битрейт                                  : 3909 Кбит/сек
Ширина                                   : 1280 пикселей
Высота                                   : 536 пикселей
Соотношение сторон                       : 2,40:1
Режим частоты кадров                     : Постоянный
Частота кадров                           : 24,000 кадра/сек
Цветовое пространство                    : YUV
Субдискретизация насыщенности            : 4:2:0
Битовая глубина                          : 8 бит
Тип развёртки                            : Прогрессивная
Бит/(Пиксели*Кадры)                      : 0.237
Размер потока                            : 2,76 Гбайт (89%)
Заголовок                                : Golosa Bolshoy Strany (2016) - Release for HDCLUB
Язык                                     : Russian
Default                                  : Да
Forced                                   : Нет
Цветовой диапазон                        : Limited
Основные цвета                           : BT.709
Характеристики трансфера                 : BT.709
Коэффициенты матрицы                     : BT.709
Аудио
Идентификатор                            : 2
Формат                                   : AC-3
Формат/Информация                        : Audio Coding 3
Расширение режима                        : CM (complete main)
Параметр Endianness формата              : Big
Идентификатор кодека                     : A_AC3
Продолжительность                        : 1 ч. 41 м.
Вид битрейта                             : Постоянный
Битрейт                                  : 384 Кбит/сек
Каналы                                   : 6 каналов
Расположение каналов                     : Front: L C R, Side: L R, LFE
Частота                                  : 48,0 КГц
Частота кадров                           : 31,250 кадров/сек (1536 spf)
Метод сжатия                             : С потерями
Размер потока                            : 278 Мбайт (9%)
Заголовок                                : AC3 5.1 @ 384 kbps
Язык                                     : Russian
Default                                  : Да
Forced                                   : Нет
Меню
00:00:00.000                             : en:1
00:07:02.000                             : en:2
00:17:47.000                             : en:3
00:29:25.000                             : en:4
00:36:17.000                             : en:5
00:47:10.000                             : en:6
00:58:01.000                             : en:7
01:05:39.000                             : en:8
01:13:43.000                             : en:9
01:26:37.000                             : en:10
01:35:57.000                             : en:11
Скриншоты:

[Цитировать]



Показать сообщения:    

Текущее время: 08-Дек 07:09

Часовой пояс: UTC + 3


Вы не можете начинать темы
Вы не можете отвечать на сообщения
Вы не можете редактировать свои сообщения
Вы не можете удалять свои сообщения
Вы не можете голосовать в опросах
Вы не можете прикреплять файлы к сообщениям
Вы не можете скачивать файлы

!ВНИМАНИЕ!
Сайт не предоставляет электронные версии произведений, а занимается лишь коллекционированием и каталогизацией ссылок, присылаемых и публикуемых на форуме нашими читателями. Если вы являетесь правообладателем какого-либо представленного материала и не желаете, чтобы ссылка на него находилась в нашем каталоге, свяжитесь с нами, и мы незамедлительно удалим ее. Файлы для обмена на трекере предоставлены пользователями сайта, и администрация не несет ответственности за их содержание. Просьба не заливать файлы, защищенные авторскими правами, а также файлы нелегального содержания!