[ Сегодня идет свободное скачивание без начисления Download ]


Статистика раздачи
Нет
 
   
 
Top  
 
 
Тупик / Standoff (2016) WEB-DLRip - Производство: США / First Point Entertainment, Goldrush Entertainment, Maple Leaf Films
Жанр: Триллер
Режиссер: Адам Аллека
Продюсер: Тоув Кристенсен, Ли Клэй, Эрик Гозлан
Актеры: Томас Джейн, Лоренс Фишбёрн, Элла Бэллентайн, Джим Уотсон, Джон Тенч, Лаура ДеКартере, Тед Атертон, Джоанна Дуглас
Описание:
Ветеран войны Картер с дробовиком наперевес вынужден защищать двенадцатилетнюю девочку, ставшую свидетелем убийства.
Возраст: 18+ (зрителям, достигшим 18 лет. запрещено для детей)
Дата мировой премьеры: 4 января 2016
Продолжительность: 01:26:02
Качество видео: WEB-DLRip Сэмпл
Перевод: Многоголосый закадровый, любительский
Озвучка / Автор перевода: Sunshine Studio & Parovoz Production
Вид субтитров: Отсутствуют
Видео: Xvid, 688x288, 1069 Кбит/с
Аудио: MP3, 2 ch, 128 Кбит/с

Mediainfo:

General
Complete name                            : D:\Фильмы\Standoff.2016.L.WEB-DLRip_745.avi
Format                                   : AVI
Format/Info                              : Audio Video Interleave
File size                                : 743 MiB
Duration                                 : 1h 26mn
Overall bit rate                         : 1 207 Kbps
Writing application                      : VirtualDubMod 1.5.10.3 (build 2550/release)
Writing library                          : VirtualDubMod build 2550/release
Video
ID                                       : 0
Format                                   : MPEG-4 Visual
Format profile                           : Advanced [email protected]
Format settings, BVOP                    : 1
Format settings, QPel                    : No
Format settings, GMC                     : No warppoints
Format settings, Matrix                  : Custom
Codec ID                                 : XVID
Codec ID/Hint                            : XviD
Duration                                 : 1h 26mn
Bit rate                                 : 1 070 Kbps
Width                                    : 688 pixels
Height                                   : 288 pixels
Display aspect ratio                     : 2.40:1
Frame rate                               : 23.976 (23976/1000) fps
Color space                              : YUV
Chroma subsampling                       : 4:2:0
Bit depth                                : 8 bits
Scan type                                : Progressive
Compression mode                         : Lossy
Bits/(Pixel*Frame)                       : 0.225
Stream size                              : 658 MiB (89%)
Writing library                          : XviD 73
Audio
ID                                       : 1
Format                                   : MPEG Audio
Format version                           : Version 1
Format profile                           : Layer 3
Mode                                     : Joint stereo
Mode extension                           : MS Stereo
Codec ID                                 : 55
Codec ID/Hint                            : MP3
Duration                                 : 1h 26mn
Bit rate mode                            : Constant
Bit rate                                 : 128 Kbps
Channel(s)                               : 2 channels
Sampling rate                            : 48.0 KHz
Compression mode                         : Lossy
Stream size                              : 78.8 MiB (11%)
Alignment                                : Aligned on interleaves
Interleave, duration                     : 42 ms (1.00 video frame)
Interleave, preload duration             : 504 ms
Скриншоты:

[Цитировать]



Показать сообщения:    

Текущее время: 04-Дек 05:02

Часовой пояс: UTC + 3


Вы не можете начинать темы
Вы не можете отвечать на сообщения
Вы не можете редактировать свои сообщения
Вы не можете удалять свои сообщения
Вы не можете голосовать в опросах
Вы не можете прикреплять файлы к сообщениям
Вы не можете скачивать файлы

!ВНИМАНИЕ!
Сайт не предоставляет электронные версии произведений, а занимается лишь коллекционированием и каталогизацией ссылок, присылаемых и публикуемых на форуме нашими читателями. Если вы являетесь правообладателем какого-либо представленного материала и не желаете, чтобы ссылка на него находилась в нашем каталоге, свяжитесь с нами, и мы незамедлительно удалим ее. Файлы для обмена на трекере предоставлены пользователями сайта, и администрация не несет ответственности за их содержание. Просьба не заливать файлы, защищенные авторскими правами, а также файлы нелегального содержания!