[ Сегодня идет свободное скачивание без начисления Download ]


Статистика раздачи
Нет
 
   
 
Top  
 
 
Телохранитель / Maryland (2015) HDRip - Производство: Франция, Бельгия / Angoa-Agicoa, Canal+ [fr], Centre National de la Cinématographie (CNC)
Жанр: Драма, Триллер
Режиссер: Алис Винокур
Продюсер: Эмили Тине, Женевьева Лемаль, Изабель Мадлен
Актеры: Маттиас Шонартс, Дайан Крюгер, Поль Ами, Перси Кемп, Виктор Понтекорво, Майкл Даубер, Франк Торресильяс, Чемс Эддин, Филипп Хаддад
Описание:
Винсент нанимается телохранителем к жене очень богатого человека. Его неодолимо влечет к ней, и первоначальная антипатия перерастает в любовь. Сможет ли он спасти любимую?
Возраст: 16+ (зрителям, достигшим 16 лет)
Дата мировой премьеры: 16 мая 2015
Дата премьеры в России: 14 января 2016, «Премиум Фильм»
Продолжительность: 01:38:12
Качество видео: HDRip Сэмпл
Перевод: Многоголосый закадровый, профессиональный
Озвучка / Автор перевода: iTunes
Вид субтитров: Отсутствуют
Видео: Xvid, 720x384, 1728 Кбит/с
Аудио: AC3, 6 ch, 384 Кбит/с

Mediainfo:

General
Complete name                            : D:\Фильмы\TeL0XPaHytel.2015.P.HDRip.1.46GB.avi
Format                                   : AVI
Format/Info                              : Audio Video Interleave
File size                                : 1.46 GiB
Duration                                 : 1h 38mn
Overall bit rate                         : 2 121 Kbps
Writing application                      : VirtualDubMod 1.5.10.2 (build 2540/release)
Writing library                          : VirtualDubMod build 2540/release
Video
ID                                       : 0
Format                                   : MPEG-4 Visual
Format profile                           : Advanced [email protected]
Format settings, BVOP                    : 2
Format settings, QPel                    : No
Format settings, GMC                     : No warppoints
Format settings, Matrix                  : Default (MPEG)
Codec ID                                 : XVID
Codec ID/Hint                            : XviD
Duration                                 : 1h 38mn
Bit rate                                 : 1 728 Kbps
Width                                    : 720 pixels
Height                                   : 384 pixels
Display aspect ratio                     : 1.85:1
Frame rate                               : 23.976 (24000/1001) fps
Color space                              : YUV
Chroma subsampling                       : 4:2:0
Bit depth                                : 8 bits
Scan type                                : Progressive
Compression mode                         : Lossy
Bits/(Pixel*Frame)                       : 0.261
Stream size                              : 1.19 GiB (81%)
Writing library                          : XviD 1.2.1 (UTC 2008-12-04)
Audio
ID                                       : 1
Format                                   : AC-3
Format/Info                              : Audio Coding 3
Mode extension                           : CM (complete main)
Format settings, Endianness              : Big
Codec ID                                 : 2000
Duration                                 : 1h 38mn
Bit rate mode                            : Constant
Bit rate                                 : 384 Kbps
Channel(s)                               : 6 channels
Channel positions                        : Front: L C R, Side: L R, LFE
Sampling rate                            : 48.0 KHz
Frame rate                               : 31.250 fps (1536 spf)
Compression mode                         : Lossy
Stream size                              : 270 MiB (18%)
Alignment                                : Split accross interleaves
Interleave, duration                     : 42 ms (1.00 video frame)
Interleave, preload duration             : 500 ms

Награды:

Каннский кинофестиваль, 2015 год
Номинации (1):
Особый взгляд Каннского кинофестиваля
Скриншоты:

[Цитировать]



Показать сообщения:    

Текущее время: 04-Дек 13:19

Часовой пояс: UTC + 3


Вы не можете начинать темы
Вы не можете отвечать на сообщения
Вы не можете редактировать свои сообщения
Вы не можете удалять свои сообщения
Вы не можете голосовать в опросах
Вы не можете прикреплять файлы к сообщениям
Вы не можете скачивать файлы

!ВНИМАНИЕ!
Сайт не предоставляет электронные версии произведений, а занимается лишь коллекционированием и каталогизацией ссылок, присылаемых и публикуемых на форуме нашими читателями. Если вы являетесь правообладателем какого-либо представленного материала и не желаете, чтобы ссылка на него находилась в нашем каталоге, свяжитесь с нами, и мы незамедлительно удалим ее. Файлы для обмена на трекере предоставлены пользователями сайта, и администрация не несет ответственности за их содержание. Просьба не заливать файлы, защищенные авторскими правами, а также файлы нелегального содержания!