[ Today is free to download without increasing Download ]

DL-List and Torrent activity
Дипан / Dheepan (2015) HDRip - Производство: Франция / A Plus Image 5, Canal+ [fr], Ciné, CinГ©mage 9, Cofinova 11
Жанр: Драма, Криминал
Режиссер: Жак Одиар
Продюсер: Паскаль Кочето, Жак Одиар
Актеры: Джесутасан Антонитасан, Калиеасвари Сринивасан, Клодин Винаситамбу, Венсан Ротье, Фаузи Бенсаиди, Марк Зинга, Басс Дем, Франк Фалис
Боевик «Тамильских тигров» бежит из Шри-Ланки после конца гражданской войны. Ради получения убежища во Франции он выдает незнакомую женщину с ребенком за свою семью. Трое беглецов поселяются в предместье Парижа и постепенно сближаются, особенно перед лицом жестокости иммигрантских кварталов…
Возраст: 16+ (зрителям, достигшим 16 лет)
Дата мировой премьеры: 21 мая 2015
Дата премьеры в России: 3 декабря 2015, «Артхаус»

Продолжительность: 01:51:15
Качество видео: HDRip Сэмпл
Перевод: Многоголосый закадровый, профессиональный
Озвучка / Автор перевода: Официальный звук
Вид субтитров: Отсутствуют
Реклама: Внимание, присутствуют вставки голосовой и текстовой рекламы.
Видео: Xvid, 720x304, 1504 Кбит/с
Аудио: AC3, 2 ch, 192 Кбит/с


Complete name                            : D:\Фильмы\Dheepan.2015.P.HDRip.1400MB.avi
Format                                   : AVI
Format/Info                              : Audio Video Interleave
File size                                : 1.37 GiB
Duration                                 : 1h 54mn
Overall bit rate                         : 1 706 Kbps
Writing application                      : VirtualDubMod | www.virtualdub-fr.org || (build 2550/release)
Writing library                          : VirtualDubMod build 2550/release
ID                                       : 0
Format                                   : MPEG-4 Visual
Format profile                           : Advanced Simple@L5
Format settings, BVOP                    : 2
Format settings, QPel                    : No
Format settings, GMC                     : No warppoints
Format settings, Matrix                  : Default (MPEG)
Codec ID                                 : XVID
Codec ID/Hint                            : XviD
Duration                                 : 1h 54mn
Bit rate                                 : 1 504 Kbps
Width                                    : 720 pixels
Height                                   : 304 pixels
Display aspect ratio                     : 2.35:1
Frame rate                               : 24.000 fps
Color space                              : YUV
Chroma subsampling                       : 4:2:0
Bit depth                                : 8 bits
Scan type                                : Progressive
Compression mode                         : Lossy
Bits/(Pixel*Frame)                       : 0.286
Stream size                              : 1.21 GiB (88%)
Writing library                          : XviD 1.2.1 (UTC 2008-12-04)
ID                                       : 1
Format                                   : AC-3
Format/Info                              : Audio Coding 3
Mode extension                           : CM (complete main)
Format settings, Endianness              : Big
Codec ID                                 : 2000
Duration                                 : 1h 54mn
Bit rate mode                            : Constant
Bit rate                                 : 192 Kbps
Channel(s)                               : 2 channels
Channel positions                        : Front: L R
Sampling rate                            : 48.0 KHz
Frame rate                               : 31.250 fps (1536 spf)
Compression mode                         : Lossy
Stream size                              : 158 MiB (11%)
Alignment                                : Split accross interleaves
Interleave, duration                     : 42 ms (1.00 video frame)
Interleave, preload duration             : 500 ms


Каннский кинофестиваль, 2015 год
Победитель (1):
Золотая пальмовая ветвь


Display posts:    

Current time is: 25-Oct 23:56

All times are UTC + 3

You cannot post new topics in this forum
You cannot reply to topics in this forum
You cannot edit your posts in this forum
You cannot delete your posts in this forum
You cannot vote in polls in this forum
You cannot attach files in this forum
You cannot download files in this forum

The site does not give electronic versions of products, and is engaged only in a collecting and cataloguing of the references sent and published at a forum by our readers. If you are the legal owner of any submitted material and do not wish that the reference to it was in our catalogue, contact us and we shall immediately remove her. Files for an exchange on tracker are given by users of a site, and the administration does not bear the responsibility for their maintenance. The request to not fill in the files protected by copyrights, and also files of the illegal maintenance!