[ Сегодня идет свободное скачивание без начисления Download ]


Статистика раздачи
Нет
 
   
 
Top  
 
 
Короткое замыкание: Дилогия / Short Circuit: Dilogy

Короткое замыкание

Название: Короткое замыкание
Оригинальное название: Short Circuit
Год выпуска: 1986
Страна: США
Жанр: фантастика, комедия, семейный
Продолжительность: 01:38:34
Перевод: Дубляж
Субтитры: русские (Полные), английские (Полные)
Режиссер: Джон Бэдэм
В ролях: Элли Шиди (Stephanie Speck), Стив Гуттенберг (Newton Crosby), Фишер Стивенс (Ben Jabituya), Остин Пендлтон (Howard Marner), Дж. У. Бейли (Skroeder), Брайан МакНамара (Frank), Тим Блэйни (Number 5, озвучка), Марвин Дж. МакИнтайр (Duke), Джон Гарбер (Otis), Пенни Сантон (Mrs. Cepeda), Вернон Уиддл (General Washburne), Барбара Тарбак (Senator Mills)
Описание:
Разряд молнии попадает в робота под номером 5, и он оживает наподобие создания Франкенштейна. Вся штука в том, что его создатель и те, кто замыслил использовать робота в военных целях, не подозревали даже, какой могучий заряд человеколюбия и добра заложен в этой, казалось бы, безмозглой и бессердечной железяке.
Рейтинг:

MPAA: PG - Рекомендуется присутствие родителей
Качество: BDRip-AVC 60fps
Формат: MKV
Видео: AVC, 1024x424 (2.40:1), 3600 kbps, 59,940 fps, 0,138 bpp
Аудио: русский / AC3 / 2.0 / 48 kHz / 192 kbps / 16 bit
Навигация по главам: есть

ОтчетМедиаИнфо

General
Unique ID : 209687380659572769205424534308693719436 (0x9DC0520EBA814A9D82A6E04D165BB98C)
Format : Matroska
Format version : Version 4 / Version 2
File size : 2.61 GiB
Duration : 1h 38mn
Overall bit rate : 3 797 Kbps
Movie name : Tiberiumsun69
Encoded date : UTC 2016-02-14 05:59:50
Writing application : mkvmerge v8.3.0 ('Over the Horizon') 64bit
Writing library : libebml v1.3.1 + libmatroska v1.4.2
Attachment : Yes
Video
ID : 1
Format : AVC
Format/Info : Advanced Video Codec
Format profile : High@L4.1
Format settings, CABAC : Yes
Format settings, ReFrames : 4 frames
Codec ID : V_MPEG4/ISO/AVC
Duration : 1h 38mn
Bit rate : 3 600 Kbps
Width : 1 024 pixels
Height : 424 pixels
Display aspect ratio : 2.40:1
Frame rate : 59.940 fps
Color space : YUV
Chroma subsampling : 4:2:0
Bit depth : 8 bits
Scan type : Progressive
Bits/(Pixel*Frame) : 0.138
Stream size : 2.43 GiB (93%)
Title : Tiberiumsun69
Writing library : x264 core 146 r2538 121396c
Encoding settings : cabac=1 / ref=3 / deblock=1:0:0 / analyse=0x3:0x113 / me=umh / subme=9 / psy=1 / psy_rd=1.00:0.10 / mixed_ref=1 / me_range=32 / chroma_me=1 / trellis=2 / 8x8dct=1 / cqm=0 / deadzone=21,11 / fast_pskip=0 / chroma_qp_offset=-3 / threads=12 / lookahead_threads=3 / sliced_threads=0 / nr=0 / decimate=1 / interlaced=0 / bluray_compat=0 / constrained_intra=0 / bframes=16 / b_pyramid=2 / b_adapt=2 / b_bias=0 / direct=3 / weightb=1 / open_gop=0 / weightp=2 / keyint=250 / keyint_min=25 / scenecut=40 / intra_refresh=0 / rc_lookahead=40 / rc=2pass / mbtree=1 / bitrate=3600 / ratetol=1.0 / qcomp=0.60 / qpmin=0 / qpmax=69 / qpstep=4 / cplxblur=20.0 / qblur=0.5 / vbv_maxrate=14000 / vbv_bufsize=14000 / nal_hrd=none / filler=0 / ip_ratio=1.40 / aq=1:1.00
Language : English
Default : Yes
Forced : No
Audio
ID : 2
Format : AC-3
Format/Info : Audio Coding 3
Mode extension : CM (complete main)
Codec ID : A_AC3
Duration : 1h 38mn
Bit rate mode : Constant
Bit rate : 192 Kbps
Channel(s) : 2 channels
Channel positions : Front: L R
Sampling rate : 48.0 KHz
Bit depth : 16 bits
Compression mode : Lossy
Stream size : 135 MiB (5%)
Title : Дубляж
Language : Russian
Default : Yes
Forced : No
Text #1
ID : 3
Format : UTF-8
Codec ID : S_TEXT/UTF8
Codec ID/Info : UTF-8 Plain Text
Title : Полные
Language : Russian
Default : No
Forced : No
Text #2
ID : 4
Format : UTF-8
Codec ID : S_TEXT/UTF8
Codec ID/Info : UTF-8 Plain Text
Title : Полные
Language : English
Default : No
Forced : No
Menu
00:00:00.000 : en:Chapter 1
00:02:27.914 : en:Chapter 2
00:06:37.997 : en:Chapter 3
00:10:00.733 : en:Chapter 4
00:13:22.968 : en:Chapter 5
00:18:22.201 : en:Chapter 6
00:21:44.002 : en:Chapter 7
00:24:46.284 : en:Chapter 8
00:33:31.943 : en:Chapter 9
00:37:03.988 : en:Chapter 10
00:40:14.178 : en:Chapter 11
00:43:12.923 : en:Chapter 12
00:49:23.093 : en:Chapter 13
00:56:23.947 : en:Chapter 14
01:02:34.283 : en:Chapter 15
01:07:58.574 : en:Chapter 16
01:17:16.832 : en:Chapter 17
01:27:06.187 : en:Chapter 18
01:32:44.525 : en:Chapter 19
01:35:06.500 : en:Chapter 20

Короткое замыкание 2

Название: Короткое замыкание 2
Оригинальное название: Short Circuit 2
Год выпуска: 1988
Страна: США
Жанр: фантастика, драма, комедия, семейный
Продолжительность: 01:50:25
Перевод: Дубляж
Субтитры: русские (Полные), английские (Полные)
Режиссер: Кеннет Джонсон
В ролях: Фишер Стивенс (Ben Jahveri), Майкл МакКин (Fred Ritter), Синтия Гибб (Sandy Banatoni), Тим Блэйни (Johnny Five, озвучка), Джек Уэстон (Oscar Baldwin), Ди МакКафферти (Saunders), Дэвид Хемблен (Jones), Дон Лейк (Manic Mike), Дэймон Д’Оливера (Bones), Тито Нуньес (Zorro), Джейсон Курилофф (Lil Man), Роберт ЛаСардо (Spooky)
Описание:
Бен Джарви, по происхождению индиец, а по профессии - изобретатель-конструктор роботов, вынужден работать уличным торговцем. В первом фильме его отстранили от работы после инцидента с созданным им роботом Номер пять.
Теперь Бен оказался на мели, он вынужден жить в фургончике и делать игрушечных роботов для продажи на улице. Эти роботы все, как один, похожи на Номера пять, но только дизайном..... Номер пять обрел личность благодаря короткому замыканию, а эти малыши - всего лишь бездушные игрушки.
Маленькие роботы привлекают внимание сотрудницы известного магазина игрушек и она делает Бену выгодное предложение - к Рождеству он должен собрать тысячу таких роботов и продать магазину оптом.
Предприимчивый американец советует Бену принять выгодное предложение и обещает помочь ему в выполнении заказа. Бен заключает сделку. Вместе со своим компаньоном он арендует рабочий цех и привлекает помощников. Приезжает и Номер пять, чтобы помочь своему создателю и другу Бену.
Бен выбирает неудачное место для работы: этажом ниже находится целая банда преступников. Это грабители банков, они роют подземный ход в хранилище, где содержится коллекция бриллиантов. Появление Бена и его помощников может сорвать подготовку к ограблению, поэтому грабители принимают решение избавиться от нежелательных соседей.... .
Рейтинг:

MPAA: PG - Рекомендуется присутствие родителей
Качество: BDRip-AVC 60fps
Формат: MKV
Видео: AVC, 1024x552 (1.855), 4400 kbps, 59,940 fps, 0,130 bpp
Аудио: русский / AC3 / 2.0 / 48 kHz / 192 kbps / 16 bit
Навигация по главам: есть

ОтчетМедиаИнфо

General
Unique ID : 228784940145736328109042971822431880023 (0xAC1E606FBFB1F2D5802CF959DDFB4357)
Format : Matroska
Format version : Version 4 / Version 2
File size : 3.54 GiB
Duration : 1h 50mn
Overall bit rate : 4 595 Kbps
Movie name : Tiberiumsun69
Encoded date : UTC 2016-02-14 06:03:08
Writing application : mkvmerge v8.3.0 ('Over the Horizon') 64bit
Writing library : libebml v1.3.1 + libmatroska v1.4.2
Attachment : Yes
Video
ID : 1
Format : AVC
Format/Info : Advanced Video Codec
Format profile : High@L4.1
Format settings, CABAC : Yes
Format settings, ReFrames : 4 frames
Codec ID : V_MPEG4/ISO/AVC
Duration : 1h 50mn
Bit rate : 4 400 Kbps
Width : 1 024 pixels
Height : 552 pixels
Display aspect ratio : 1.855
Frame rate : 59.940 fps
Color space : YUV
Chroma subsampling : 4:2:0
Bit depth : 8 bits
Scan type : Progressive
Bits/(Pixel*Frame) : 0.130
Stream size : 3.33 GiB (94%)
Title : Tiberiumsun69
Writing library : x264 core 146 r2538 121396c
Encoding settings : cabac=1 / ref=3 / deblock=1:0:0 / analyse=0x3:0x113 / me=umh / subme=9 / psy=1 / psy_rd=1.00:0.10 / mixed_ref=1 / me_range=32 / chroma_me=1 / trellis=2 / 8x8dct=1 / cqm=0 / deadzone=21,11 / fast_pskip=0 / chroma_qp_offset=-3 / threads=12 / lookahead_threads=3 / sliced_threads=0 / nr=0 / decimate=1 / interlaced=0 / bluray_compat=0 / constrained_intra=0 / bframes=16 / b_pyramid=2 / b_adapt=2 / b_bias=0 / direct=3 / weightb=1 / open_gop=0 / weightp=2 / keyint=250 / keyint_min=25 / scenecut=40 / intra_refresh=0 / rc_lookahead=40 / rc=2pass / mbtree=1 / bitrate=4400 / ratetol=1.0 / qcomp=0.60 / qpmin=0 / qpmax=69 / qpstep=4 / cplxblur=20.0 / qblur=0.5 / vbv_maxrate=14000 / vbv_bufsize=14000 / nal_hrd=none / filler=0 / ip_ratio=1.40 / aq=1:1.00
Language : English
Default : Yes
Forced : No
Audio
ID : 2
Format : AC-3
Format/Info : Audio Coding 3
Mode extension : CM (complete main)
Codec ID : A_AC3
Duration : 1h 50mn
Bit rate mode : Constant
Bit rate : 192 Kbps
Channel(s) : 2 channels
Channel positions : Front: L R
Sampling rate : 48.0 KHz
Bit depth : 16 bits
Compression mode : Lossy
Stream size : 152 MiB (4%)
Title : Дубляж
Language : Russian
Default : Yes
Forced : No
Text #1
ID : 3
Format : UTF-8
Codec ID : S_TEXT/UTF8
Codec ID/Info : UTF-8 Plain Text
Title : Полные
Language : Russian
Default : No
Forced : No
Text #2
ID : 4
Format : UTF-8
Codec ID : S_TEXT/UTF8
Codec ID/Info : UTF-8 Plain Text
Title : Полные
Language : English
Default : No
Forced : No
Menu
00:00:00.000 : :00:00:00.000
00:05:06.765 : :00:05:06.765
00:11:57.133 : :00:11:57.133
00:17:12.531 : :00:17:12.531
00:24:50.989 : :00:24:50.989
00:35:11.192 : :00:35:11.192
00:41:19.644 : :00:41:19.644
00:46:59.316 : :00:46:59.316
00:56:21.378 : :00:56:21.378
01:03:52.162 : :01:03:52.162
01:07:26.751 : :01:07:26.751
01:15:41.746 : :01:15:41.746
01:22:34.116 : :01:22:34.116
01:30:03.690 : :01:30:03.690
01:38:17.350 : :01:38:17.350
01:44:27.344 : :01:44:27.344
Авторство группы

[Цитировать]



Показать сообщения:    

Текущее время: 10-Дек 13:50

Часовой пояс: UTC + 3


Вы не можете начинать темы
Вы не можете отвечать на сообщения
Вы не можете редактировать свои сообщения
Вы не можете удалять свои сообщения
Вы не можете голосовать в опросах
Вы не можете прикреплять файлы к сообщениям
Вы не можете скачивать файлы

!ВНИМАНИЕ!
Сайт не предоставляет электронные версии произведений, а занимается лишь коллекционированием и каталогизацией ссылок, присылаемых и публикуемых на форуме нашими читателями. Если вы являетесь правообладателем какого-либо представленного материала и не желаете, чтобы ссылка на него находилась в нашем каталоге, свяжитесь с нами, и мы незамедлительно удалим ее. Файлы для обмена на трекере предоставлены пользователями сайта, и администрация не несет ответственности за их содержание. Просьба не заливать файлы, защищенные авторскими правами, а также файлы нелегального содержания!