[ Сегодня идет свободное скачивание без начисления Download ]


Статистика раздачи
Нет
 
   
 
Top  
 
 
Отступники / The Departed Название: Отступники
Оригинальное название: The Departed
Год выпуска: 2006
Страна: США, Гонконг
Жанр: триллер, драма, криминал
Продолжительность: 02:31:18
Перевод: Дубляж
Субтитры: русские (Полные), английские (Полные)
Режиссер: Мартин Скорсезе
В ролях: Леонардо ДиКаприо (Billy), Мэтт Дэймон (Colin Sullivan), Джек Николсон (Frank Costello), Марк Уолберг (Dignam), Мартин Шин (Queenan), Рэй Уинстон (Mr. French), Вера Фармига (Madolyn), Энтони Андерсон (Trooper Brown), Алек Болдуин (Ellerby), Кевин Корригэн (Cousin Sean), Джеймс Бэдж Дэйл (Trooper Barrigan), Дэвид О’Хара (Fitzy)-Описание:
Два лучших выпускника полицейской академии оказались по разные стороны баррикады: один из них - агент мафии в рядах правоохранительных органов, другой - «крот», внедрённый в мафию. Каждый считает своим долгом обнаружить и уничтожить противника, но постоянная жизнь в искажённых реалиях меняет внутренний мир героев.
Рейтинг:

MPAA: R - Лицам до 17 лет обязательно присутствие взрослого
Качество: BDRip-AVC 60fps
Формат: MKV
Видео: AVC, 1024x424 (2.40:1), 3285 kbps, 59,940 fps, 0,126 bpp
Аудио: русский / AC3 / 5.1 / 48 kHz / 448 kbps / 16 bit
Навигация по главам: есть

ОтчетМедиаИнфо

General
Unique ID : 206704014018485516649016496554791618888 (0x9B81BEB9C874781FB9D8AB7964634948)
Format : Matroska
Format version : Version 4 / Version 2
File size : 3.95 GiB
Duration : 2h 31mn
Overall bit rate : 3 738 Kbps
Movie name : TIberiumsun69
Encoded date : UTC 2016-02-14 06:23:00
Writing application : mkvmerge v8.3.0 ('Over the Horizon') 64bit
Writing library : libebml v1.3.1 + libmatroska v1.4.2
Attachment : Yes
Video
ID : 1
Format : AVC
Format/Info : Advanced Video Codec
Format profile : [email protected]
Format settings, CABAC : Yes
Format settings, ReFrames : 4 frames
Codec ID : V_MPEG4/ISO/AVC
Duration : 2h 31mn
Bit rate : 3 285 Kbps
Width : 1 024 pixels
Height : 424 pixels
Display aspect ratio : 2.40:1
Frame rate : 59.940 fps
Color space : YUV
Chroma subsampling : 4:2:0
Bit depth : 8 bits
Scan type : Progressive
Bits/(Pixel*Frame) : 0.126
Stream size : 3.40 GiB (86%)
Title : Tiberiumsun69
Writing library : x264 core 146 r2538 121396c
Encoding settings : cabac=1 / ref=3 / deblock=1:0:0 / analyse=0x3:0x113 / me=umh / subme=11 / psy=1 / psy_rd=1.00:0.10 / mixed_ref=1 / me_range=32 / chroma_me=1 / trellis=2 / 8x8dct=1 / cqm=0 / deadzone=21,11 / fast_pskip=0 / chroma_qp_offset=-3 / threads=12 / lookahead_threads=3 / sliced_threads=0 / nr=0 / decimate=1 / interlaced=0 / bluray_compat=0 / constrained_intra=0 / bframes=16 / b_pyramid=2 / b_adapt=2 / b_bias=0 / direct=3 / weightb=1 / open_gop=0 / weightp=2 / keyint=250 / keyint_min=25 / scenecut=40 / intra_refresh=0 / rc_lookahead=40 / rc=2pass / mbtree=1 / bitrate=3285 / ratetol=1.0 / qcomp=0.60 / qpmin=0 / qpmax=69 / qpstep=4 / cplxblur=20.0 / qblur=0.5 / vbv_maxrate=14000 / vbv_bufsize=14000 / nal_hrd=none / filler=0 / ip_ratio=1.40 / aq=1:1.00
Language : English
Default : Yes
Forced : No
Audio
ID : 2
Format : AC-3
Format/Info : Audio Coding 3
Mode extension : CM (complete main)
Codec ID : A_AC3
Duration : 2h 31mn
Bit rate mode : Constant
Bit rate : 448 Kbps
Channel(s) : 6 channels
Channel positions : Front: L C R, Side: L R, LFE
Sampling rate : 48.0 KHz
Bit depth : 16 bits
Compression mode : Lossy
Stream size : 485 MiB (12%)
Title : Дубляж
Language : Russian
Default : Yes
Forced : No
Text #1
ID : 3
Format : UTF-8
Codec ID : S_TEXT/UTF8
Codec ID/Info : UTF-8 Plain Text
Title : Полные
Language : Russian
Default : No
Forced : No
Text #2
ID : 4
Format : UTF-8
Codec ID : S_TEXT/UTF8
Codec ID/Info : UTF-8 Plain Text
Title : Полные
Language : English
Default : No
Forced : No
Menu
00:00:00.000 : en:Costello Credo
00:05:03.637 : en:School's Out
00:08:52.532 : en:You're No Cop
00:14:56.062 : en:Serve the Commonwealth
00:19:11.817 : en:He's Jackie's Nephew
00:24:02.274 : en:Dignam Briefs the Girls
00:26:02.060 : en:Tipped Off, Ticked Off
00:30:07.973 : en:Impervious to Analysis
00:32:22.774 : en:Necessary Torture
00:37:13.398 : en:Two Guys From Providence
00:42:46.731 : en:May I Remind You
00:47:28.179 : en:Call Your Mother
00:51:23.747 : en:How Billy Feels
00:54:50.954 : en:Hang Tight for Me
00:59:44.080 : en:Call the Game
01:03:09.786 : en:No Tickee, No Laundry
01:07:46.229 : en:Relationship ups and Downs
01:13:04.213 : en:If You Coulda
01:14:58.160 : en:Protected and Benumbed
01:19:28.597 : en:Real Vulnerability
01:22:45.294 : en:Take Care of Business
01:27:23.738 : en:Each Other's Trail
01:30:19.247 : en:Heavy Lies the Crown
01:36:33.287 : en:The One That Gets Out
01:39:31.632 : en:Tail on Queenan
01:43:48.389 : en:Taking the Fall
01:47:45.709 : en:Wrong Number
01:51:53.040 : en:Dead Guy's Phone
01:56:54.341 : en:Nation of Rats
02:00:53.413 : en:Sheffield Shootout
02:03:06.546 : en:Getting Frank
02:06:03.556 : en:Deleted
02:10:52.845 : en:Play Me Now
02:15:19.111 : en:Rats on a Rooftop
02:18:55.994 : en:The Departed
02:23:19.090 : en:Okay
02:24:45.677 : en:End Credits

Скриншоты

Авторство группы

[Цитировать]



Показать сообщения:    

Текущее время: 06-Дек 13:17

Часовой пояс: UTC + 3


Вы не можете начинать темы
Вы не можете отвечать на сообщения
Вы не можете редактировать свои сообщения
Вы не можете удалять свои сообщения
Вы не можете голосовать в опросах
Вы не можете прикреплять файлы к сообщениям
Вы не можете скачивать файлы

!ВНИМАНИЕ!
Сайт не предоставляет электронные версии произведений, а занимается лишь коллекционированием и каталогизацией ссылок, присылаемых и публикуемых на форуме нашими читателями. Если вы являетесь правообладателем какого-либо представленного материала и не желаете, чтобы ссылка на него находилась в нашем каталоге, свяжитесь с нами, и мы незамедлительно удалим ее. Файлы для обмена на трекере предоставлены пользователями сайта, и администрация не несет ответственности за их содержание. Просьба не заливать файлы, защищенные авторскими правами, а также файлы нелегального содержания!