[ Сегодня идет свободное скачивание без начисления Download ]


Статистика раздачи
Качаю: [ 1 ]
 
   
 
Top  
 
 
Охота на Монстра / Monster Hunt (2015) Информация о фильме
Название: Охота на Монстра
Оригинальное название: Monster Hunt
Год выхода: 2015
Жанр: Фэнтези, боевик, комедия
Режиссер: Раман Хюи
В ролях: Тан Вэй, Сюэ Бай, Эрик Цан, Цзин Божань, У Цзян, Яо Чэнь
О фильме:
Когда-то давно люди и демоны мирно сосуществовали, но затем человеческая жадность привела род демонов на грань исчезновения...
Плодом страсти обычного парня Инь Тяня и таинственной незнакомки становится малыш, которому предначертано занять трон короля демонов. Теперь странноватой парочке придется защищать свое чадо от злых демонов и коварных людей. Главным их врагом становится жестокий и алчный Цянь Ху Гэ, стремящийся пленить будущего короля, чтобы обрести безмерную силу.

Страна: Китай, Гонконг
Студия: White Rabbit Entertainment, The, Base FX, Industrial Light & Magic (ILM)
Продолжительность: 01:57:04
Перевод: Дубляж [iTunes]
Файл
Кодек: H.264
Качество: BDRip 720р от SuperMin
Видео: 1280x536 (2.40:1), 3649 kbps, 23.976 fps
Звук:
Русский (AC-3, 6ch, 384 kbps)
Оригинал (AC-3, 6 ch, 640 kbps)
Субтитры: русские (форс.), английские

MI

General
Unique ID : 247794326851117752773871542444981372340 (0xBA6B738FD080BC6DAA3E39C623BE45B4)
Complete name : E:ФИЛЬМЫОхота.на.Монстра.2015.x264.BDRip.720p.mkv
Format : Matroska
Format version : Version 4 / Version 2
File size : 3.90 GiB
Duration : 1h 57mn
Overall bit rate : 4 768 Kbps
Movie name : Monster Hunt (2015)
Encoded date : UTC 2016-02-16 07:49:49
Writing application : mkvmerge v8.3.0 ('Over the Horizon') 64bit
Writing library : libebml v1.3.1 + libmatroska v1.4.2
DURATION : 01:51:04.450000000
NUMBER_OF_FRAMES : 1511
NUMBER_OF_BYTES : 32893
_STATISTICS_WRITING_APP : mkvmerge v8.3.0 ('Over the Horizon') 64bit
_STATISTICS_WRITING_DATE_UT : 2016-02-16 07:49:49
_STATISTICS_TAGS : BPS DURATION NUMBER_OF_FRAMES NUMBER_OF_BYTES
Video
ID : 1
Format : AVC
Format/Info : Advanced Video Codec
Format profile : [email protected]
Format settings, CABAC : Yes
Format settings, ReFrames : 8 frames
Codec ID : V_MPEG4/ISO/AVC
Duration : 1h 57mn
Bit rate : 3 649 Kbps
Width : 1 280 pixels
Height : 536 pixels
Display aspect ratio : 2.40:1
Frame rate mode : Constant
Frame rate : 23.976 fps
Color space : YUV
Chroma subsampling : 4:2:0
Bit depth : 8 bits
Scan type : Progressive
Bits/(Pixel*Frame) : 0.222
Stream size : 2.98 GiB (77%)
Default : Yes
Forced : No
DURATION : 01:57:04.288000000
NUMBER_OF_FRAMES : 219509
NUMBER_OF_BYTES : 561943040
_STATISTICS_WRITING_APP : mkvmerge v8.3.0 ('Over the Horizon') 64bit
_STATISTICS_WRITING_DATE_UT : 2016-02-16 07:49:49
_STATISTICS_TAGS : BPS DURATION NUMBER_OF_FRAMES NUMBER_OF_BYTES
Audio #1
ID : 2
Format : AC-3
Format/Info : Audio Coding 3
Mode extension : CM (complete main)
Format settings, Endianness : Big
Codec ID : A_AC3
Duration : 1h 57mn
Bit rate mode : Constant
Bit rate : 384 Kbps
Channel(s) : 6 channels
Channel positions : Front: L C R, Side: L R, LFE
Sampling rate : 48.0 KHz
Compression mode : Lossy
Stream size : 322 MiB (8%)
Title : Dub | iTunes
Language : Russian
Default : No
Forced : No
DURATION : 01:57:04.309000000
NUMBER_OF_FRAMES : 168415
NUMBER_OF_BYTES : 3285144325
_STATISTICS_WRITING_APP : mkvmerge v8.3.0 ('Over the Horizon') 64bit
_STATISTICS_WRITING_DATE_UT : 2016-02-16 07:49:49
_STATISTICS_TAGS : BPS DURATION NUMBER_OF_FRAMES NUMBER_OF_BYTES
Audio #2
ID : 3
Format : AC-3
Format/Info : Audio Coding 3
Mode extension : CM (complete main)
Format settings, Endianness : Big
Codec ID : A_AC3
Duration : 1h 57mn
Bit rate mode : Constant
Bit rate : 640 Kbps
Channel(s) : 6 channels
Channel positions : Front: L C R, Side: L R, LFE
Sampling rate : 48.0 KHz
Compression mode : Lossy
Stream size : 536 MiB (13%)
Language : Chinese
Default : Yes
Forced : No
Text #1
ID : 4
Format : UTF-8
Codec ID : S_TEXT/UTF8
Codec ID/Info : UTF-8 Plain Text
Title : Forced
Language : Russian
Default : Yes
Forced : No
Text #2
ID : 5
Format : UTF-8
Codec ID : S_TEXT/UTF8
Codec ID/Info : UTF-8 Plain Text
Language : English
Default : No
Forced : No
Menu
00:00:00.000 : en:Chapter 1
00:08:56.494 : en:Chapter 2
00:19:49.105 : en:Chapter 3
00:29:36.858 : en:Chapter 4
00:40:09.532 : en:Chapter 5
00:47:49.241 : en:Chapter 6
00:58:35.762 : en:Chapter 7
01:09:18.571 : en:Chapter 8
01:17:06.497 : en:Chapter 9
01:28:18.710 : en:Chapter 10
01:36:06.594 : en:Chapter 11
01:48:05.270 : en:Chapter 12

Скриншоты

[Цитировать]



Показать сообщения:    

Текущее время: 05-Дек 23:45

Часовой пояс: UTC + 3


Вы не можете начинать темы
Вы не можете отвечать на сообщения
Вы не можете редактировать свои сообщения
Вы не можете удалять свои сообщения
Вы не можете голосовать в опросах
Вы не можете прикреплять файлы к сообщениям
Вы не можете скачивать файлы

!ВНИМАНИЕ!
Сайт не предоставляет электронные версии произведений, а занимается лишь коллекционированием и каталогизацией ссылок, присылаемых и публикуемых на форуме нашими читателями. Если вы являетесь правообладателем какого-либо представленного материала и не желаете, чтобы ссылка на него находилась в нашем каталоге, свяжитесь с нами, и мы незамедлительно удалим ее. Файлы для обмена на трекере предоставлены пользователями сайта, и администрация не несет ответственности за их содержание. Просьба не заливать файлы, защищенные авторскими правами, а также файлы нелегального содержания!