[ Сегодня идет свободное скачивание без начисления Download ]


Статистика раздачи
Нет
 
   
 
Top  
 
 
Исполнять! Есть, сэр! (Гомосеки против зомби) / Keep Running. Zombie Soldier! (2015) WEB-DLRip - Производство: Таиланд, Phranakorn Film
Жанр: Комедия
Режиссер: Танварин Сухапхисит
Актеры: Сомчай Кемглад ​​, Артит Ньомкул, Виредит Шри Малай, Нико Вокула
Описание:
На последнем году обучения в резервных войсках две группы парней никак не могут ужиться и постоянно задирают друг друга. Конфликт тянется ещё со старшей школы и здорово портит им учения. Потому что за свои постоянные разборки на полевых занятиях в тренировочном лагере «Као Чон Кай» ребята с завидной постоянностью получают «наряды вне очереди».
Но когда под покровом ночи в военном лагере сгущается атмосфера тайны и ужаса… выясняется, что их наставник-сержант - мертвец.
И у парней начинает болеть голова совсем уже о другом: "Как пережить дополнительные полевые испытания от изверга сержанта?"
Дата мировой премьеры: 22 января 2015
Продолжительность: 01:20:11
Качество видео: WEB-DLRip
Перевод: Одноголосый закадровый, любительский
Озвучка: Хихикающий доктор
Внимание! Присутствует голосовая реклама.
Видео: AVC/H.264, 1280x532, ~3500 Kbps
Аудио: MP3, 2 ch, 192 Kbps, CBR
Семпл: Скачать

Mediainfo:

Общее
Уникальный идентификатор                 : 217490695834586790838294578624350006875 (0xA39F2F33176DB9EA9F51B96BC3E62E5B)
Полное имя                               : E:\MMMM\Keep.Running.Zombie.Soldier!.2015.mkv
Формат                                   : Matroska
Версия формата                           : Version 1
Размер файла                             : 2,04 Гбайт
Продолжительность                        : 1 ч. 20 м.
Общий поток                              : 3639 Кбит/сек
Дата кодирования                         : UTC 2016-02-17 10:17:19
Программа кодирования                    : mkvmerge v2.3.0 ('Freak U') built on Sep  8 2008 18:32:16
Библиотека кодирования                   : libebml v0.7.7 + libmatroska v0.8.1
Видео
Идентификатор                            : 1
Формат                                   : AVC
Формат/Информация                        : Advanced Video Codec
Профиль формата                          : [email protected]
Параметр CABAC формата                   : Да
Параметр ReFrames формата                : 8 кадров
Идентификатор кодека                     : V_MPEG4/ISO/AVC
Продолжительность                        : 1 ч. 20 м.
Битрейт                                  : 3500 Кбит/сек
Ширина                                   : 1280 пикселей
Высота                                   : 532 пикселя
Соотношение сторон                       : 2,40:1
Режим частоты кадров                     : Постоянный
Частота кадров                           : 23,976 (24000/1001) кадра/сек
Цветовое пространство                    : YUV
Субдискретизация насыщенности            : 4:2:0
Битовая глубина                          : 8 бит
Тип развёртки                            : Прогрессивная
Бит/(Пиксели*Кадры)                      : 0.214
Размер потока                            : 1,89 Гбайт (93%)
Библиотека кодирования                   : x264 core 146 r2538 121396c
Настройки программы                      : cabac=1 / ref=8 / deblock=1:-1:-1 / analyse=0x3:0x113 / me=umh / subme=11 / psy=1 / psy_rd=1.00:0.20 / mixed_ref=1 / me_range=32 / chroma_me=1 / trellis=2 / 8x8dct=1 / cqm=0 / deadzone=21,11 / fast_pskip=0 / chroma_qp_offset=-3 / threads=12 / lookahead_threads=1 / sliced_threads=0 / nr=0 / decimate=0 / interlaced=0 / bluray_compat=0 / constrained_intra=0 / bframes=6 / b_pyramid=2 / b_adapt=2 / b_bias=0 / direct=1 / weightb=1 / open_gop=0 / weightp=2 / keyint=240 / keyint_min=23 / scenecut=40 / intra_refresh=0 / rc_lookahead=40 / rc=abr / mbtree=0 / bitrate=3500 / ratetol=1.0 / qcomp=0.60 / qpmin=0 / qpmax=69 / qpstep=4 / vbv_maxrate=50000 / vbv_bufsize=62500 / nal_hrd=none / filler=0 / ip_ratio=1.40 / pb_ratio=1.30 / aq=1:1.00
Default                                  : Да
Forced                                   : Нет
Аудио
Идентификатор                            : 2
Формат                                   : MPEG Audio
Версия формата                           : Version 1
Профиль формата                          : Layer 3
Идентификатор кодека                     : A_MPEG/L3
Идентификатор кодека/Подсказка           : MP3
Продолжительность                        : 1 ч. 20 м.
Вид битрейта                             : Постоянный
Битрейт                                  : 192 Кбит/сек
Каналы                                   : 2 канала
Частота                                  : 44,1 КГц
Метод сжатия                             : С потерями
Размер потока                            : 110 Мбайт (5%)
Default                                  : Да
Forced                                   : Нет
Скриншоты:

[Цитировать]



Показать сообщения:    

Текущее время: 06-Дек 03:53

Часовой пояс: UTC + 3


Вы не можете начинать темы
Вы не можете отвечать на сообщения
Вы не можете редактировать свои сообщения
Вы не можете удалять свои сообщения
Вы не можете голосовать в опросах
Вы не можете прикреплять файлы к сообщениям
Вы не можете скачивать файлы

!ВНИМАНИЕ!
Сайт не предоставляет электронные версии произведений, а занимается лишь коллекционированием и каталогизацией ссылок, присылаемых и публикуемых на форуме нашими читателями. Если вы являетесь правообладателем какого-либо представленного материала и не желаете, чтобы ссылка на него находилась в нашем каталоге, свяжитесь с нами, и мы незамедлительно удалим ее. Файлы для обмена на трекере предоставлены пользователями сайта, и администрация не несет ответственности за их содержание. Просьба не заливать файлы, защищенные авторскими правами, а также файлы нелегального содержания!