[ Сегодня идет свободное скачивание без начисления Download ]


Статистика раздачи
Нет
 
   
 
Top  
 
 
Допинг / The Program (2015) BDRip - Производство: Великобритания, Франция
Жанр: Драма, биография, спорт
Режиссер: Стивен Фрирз
Продюсер: Тим Беван, Эрик Феллнер, Трэйси Сиуорд
Актеры: Бен Фостер, Крис О Дауд, Джесси Племонс, Ли Пейс, Дастин Хоффман, Лаура Доннелли, Брайан Гринберг, Элейн Кэссиди, Гийом Кане, Дени Меноше
Описание:
Ирландский спортивный журналист убежден в том, что Лэнс Армстронг во время своих победных выступлений на Тур де Франс использовал запрещенные вещества. С этими убеждениями, он начинает искать доказательства, которые разоблачат Армстронга.

Дата мировой премьеры: 13 сентября 2015
Дата премьеры в России: 18 февраля 2016

Релиз от: TW17TER
Продолжительность: 01:43:05
Качество видео: BDRip
Перевод: Многоголосый закадровый, профессиональный (iTunes)
Субтитры: отсутствуют
Видео: Xvid, 720x304, ~1570 kbps
Аудио: AC3, 6 ch, 384 kbps, CBR
Семпл: Скачать

Mediainfo:

Формат : AVI
Формат/Информация : Audio Video Interleave
Размер файла : 1,41 Гбайт
Продолжительность : 1 ч. 43 м.
Общий поток : 1963 Кбит/сек
Название фильма : Doping.2015.P.BDRip_by_Twi7ter
Режиссёр : Twi7ter
Жанр : Drama/Sport
Программа кодирования : VirtualDubMod 1.5.10.3 (build 2550/release)
Формат оригинала/Имя : Movie
Видео
Идентификатор : 0
Формат : MPEG-4 Visual
Профиль формата : Advanced Simple@L5
Параметр BVOP формата : 2
Параметр QPel формата : Нет
Параметр GMC формата : Без точки перехода
Параметр матрицы формата : Выборочная
Идентификатор кодека : XVID
Идентификатор кодека/Подсказка : XviD
Продолжительность : 1 ч. 43 м.
Битрейт : 1570 Кбит/сек
Ширина : 720 пикселей
Высота : 304 пикселя
Соотношение сторон : 2,35:1
Частота кадров : 24,000 кадра/сек
Цветовое пространство : YUV
Субдискретизация насыщенности : 4:2:0
Битовая глубина : 8 бит
Тип развёртки : Прогрессивная
Метод сжатия : С потерями
Бит/(Пиксели*Кадры) : 0.299
Размер потока : 1,13 Гбайт (80%)
Библиотека кодирования : XviD 73
Аудио
Идентификатор : 1
Формат : AC-3
Формат/Информация : Audio Coding 3
Расширение режима : CM (complete main)
Параметр Endianness формата : Big
Идентификатор кодека : 2000
Продолжительность : 1 ч. 43 м.
Вид битрейта : Постоянный
Битрейт : 384 Кбит/сек
Каналы : 6 каналов
Расположение каналов : Front: L C R, Side: L R, LFE
Частота : 48,0 КГц
Метод сжатия : С потерями
Задержка видео : 1 с. 0 мс.
Размер потока : 283 Мбайт (20%)
Выравнивание : Разделение по промежуткам
Продолжительность промежутка : 42 мс. (1,00 видеокадр)
Время предзагрузки промежутка : 500 мс.
Скриншоты:

[Цитировать]



Показать сообщения:    

Текущее время: 09-Дек 06:56

Часовой пояс: UTC + 3


Вы не можете начинать темы
Вы не можете отвечать на сообщения
Вы не можете редактировать свои сообщения
Вы не можете удалять свои сообщения
Вы не можете голосовать в опросах
Вы не можете прикреплять файлы к сообщениям
Вы не можете скачивать файлы

!ВНИМАНИЕ!
Сайт не предоставляет электронные версии произведений, а занимается лишь коллекционированием и каталогизацией ссылок, присылаемых и публикуемых на форуме нашими читателями. Если вы являетесь правообладателем какого-либо представленного материала и не желаете, чтобы ссылка на него находилась в нашем каталоге, свяжитесь с нами, и мы незамедлительно удалим ее. Файлы для обмена на трекере предоставлены пользователями сайта, и администрация не несет ответственности за их содержание. Просьба не заливать файлы, защищенные авторскими правами, а также файлы нелегального содержания!