[ Сегодня идет свободное скачивание без начисления Download ]


Статистика раздачи
Нет
 
   
 
Top  
 
 
Правда / Truth (2015) BDRip - Производство: США, Австралия
Жанр: Драма
Режиссер: Джеймс Вандербилт
Продюсер: Брэдли Дж. Фишер, Даг Манкофф, Бретт Рэтнер
Актеры: Кейт Бланшетт, Роберт Редфорд, Тофер Грейс, Деннис Куэйд, Элизабет Мосс, Брюс Гринвуд, Стейси Кич, Джон Бенжамин Хикки, Дэвид Лайонс, Дермот Малруни, Рэйчел Блейк, Эндрю МакФарлэйн
Описание:
В картине будет рассказываться о скандале, разразившемся после того, как суперпопулярный ведущий новостной программы на CBS Дэн Рэзер заявил в эфире о том, что Джордж Буш-мл. по блату попал в Национальную гвардию США, чтобы избежать отправки во Вьетнам (спасибо могучему папе Бушу-старшему, который на тот момент служил послом). После такой правды репутация Рэзера здорово пострадала, а его продюсера Мэри Мэйпс и вовсе уволили.
Дата мировой премьеры: 12 сентября 2015
Продолжительность: 02:05:13
Качество видео: BDRip
Перевод: Двуголосый закадровый, любительский
Видео: Xvid, 720x304, ~1110 Кбит/с
Аудио: MP3, 2 ch, 192 Кбит/с, CBR
Семпл: Скачать

Mediainfo:

Общее
Полное имя                               : D:\KINO 3\CORCTED\Truth.2015.avi
Формат                                   : AVI
Формат/Информация                        : Audio Video Interleave
Размер файла                             : 1,15 Гбайт
Продолжительность                        : 2 ч. 5 м.
Общий поток                              : 1311 Кбит/сек
Программа кодирования                    : VirtualDubMod 1.5.10.3 | www.virtualdub-fr.org || (build 2550/release)
Библиотека кодирования                   : VirtualDubMod build 2550/release
Правообладатель                          : SaM
Видео
Идентификатор                            : 0
Формат                                   : MPEG-4 Visual
Профиль формата                          : Advanced [email protected]
Параметр BVOP формата                    : 4
Параметр QPel формата                    : Нет
Параметр GMC формата                     : Без точки перехода
Параметр матрицы формата                 : Default (H.263)
Режим смешивания                         : Сжатый битовый поток
Идентификатор кодека                     : XVID
Идентификатор кодека/Подсказка           : XviD
Продолжительность                        : 2 ч. 5 м.
Битрейт                                  : 1110 Кбит/сек
Ширина                                   : 720 пикселей
Высота                                   : 304 пикселя
Соотношение сторон                       : 2,35:1
Частота кадров                           : 23,976 кадра/сек
Цветовое пространство                    : YUV
Субдискретизация насыщенности            : 4:2:0
Битовая глубина                          : 8 бит
Тип развёртки                            : Прогрессивная
Метод сжатия                             : С потерями
Бит/(Пиксели*Кадры)                      : 0.211
Размер потока                            : 994 Мбайт (85%)
Библиотека кодирования                   : XviD 65
Аудио
Идентификатор                            : 1
Формат                                   : MPEG Audio
Версия формата                           : Version 1
Профиль формата                          : Layer 3
Режим                                    : Joint stereo
Расширение режима                        : MS Stereo
Идентификатор кодека                     : 55
Идентификатор кодека/Подсказка           : MP3
Продолжительность                        : 2 ч. 5 м.
Вид битрейта                             : Постоянный
Битрейт                                  : 192 Кбит/сек
Каналы                                   : 2 канала
Частота                                  : 48,0 КГц
Метод сжатия                             : С потерями
Размер потока                            : 172 Мбайт (15%)
Выравнивание                             : Соединение по промежуткам
Продолжительность промежутка             : 42  мс. (1,00 видеокадр)
Время предзагрузки промежутка            : 504  мс.
Скриншоты:

[Цитировать]



Показать сообщения:    

Текущее время: 06-Дек 22:59

Часовой пояс: UTC + 3


Вы не можете начинать темы
Вы не можете отвечать на сообщения
Вы не можете редактировать свои сообщения
Вы не можете удалять свои сообщения
Вы не можете голосовать в опросах
Вы не можете прикреплять файлы к сообщениям
Вы не можете скачивать файлы

!ВНИМАНИЕ!
Сайт не предоставляет электронные версии произведений, а занимается лишь коллекционированием и каталогизацией ссылок, присылаемых и публикуемых на форуме нашими читателями. Если вы являетесь правообладателем какого-либо представленного материала и не желаете, чтобы ссылка на него находилась в нашем каталоге, свяжитесь с нами, и мы незамедлительно удалим ее. Файлы для обмена на трекере предоставлены пользователями сайта, и администрация не несет ответственности за их содержание. Просьба не заливать файлы, защищенные авторскими правами, а также файлы нелегального содержания!