[ Сегодня идет свободное скачивание без начисления Download ]


Статистика раздачи
Нет
 
   
 
Top  
 
 
Пасечник -Год выпуска: 2016
Производство: Россия, Анкор-Студио по заказу НТВ
Жанр: Детектив
Продолжительность: ~ 00:45:00 / Серия
Субтитры: Нет-Режиссёр: Сергей Быстрицкий
В ролях: Анатолий Журавлёв, Анастасия Панина, Иван Шмаков, Александр Носик, Иван Агапов, Максим Глотов, Бесо Гатаев, Сергей Шарифуллин, Максим Туранцев, Владимир Яковлев (II), Федор Румянцев, Максим Фролов, Сергей Друзьяк, Екатерина Сахарова, Олег Ребров, Александра Булычёва, Ричард Бондарев, Евгений Рябов, Алексей Герасимов (II), Наталья Барило, Андрей Харыбин, Леонид Тележинский, Александр Пацевич, Сергей Макаров (V), Андрей Сергеев (IV)-Описание:
В новых сериях главный герой Глеб Збруев отстраивает пасеку, а тем временем ждут своего часа… полицейский китель и фуражка! Глеб возвращается в органы, но не в качестве сыскаря — эту страницу своей биографии он уже перевернул. Пасечник становится участковым — вместо Васи Клюева, которому с учетом его профессиональных заслуг и образования предлагают работу следователя в Климово. Теперь кабинет Клюева находится в том же здании ОВД, где работает Глеб. «В наследство» от Василия участковому достается Перепилец. Бравая «троица» и составит в новом сезоне костяк законников, противостоящих злу в Климовском районе. Им придется расследовать дела коллекторов и черных риелторов, убийство курьера, которое было совершено из похищенного у Перепильца табельного оружия, ловить вооруженного дезертира, сбежавшего из воинской части, а также разбираться со множеством других, запутанных и опасных преступлений.-Реклама: Отсутствует
Релиз: Rip by Nikolspup от MediaClub

Семпл-Качество: HDTV 1080i
Формат: TS
Видео кодек: AVC
Аудио кодек: MP2
Видео: MPEG-4 AVC, ~ 8500 Кбит/с, 1920x1080, 25 кадр/с, 0.152 Бит/(Пиксели*Кадры)
Аудио: MP2, 2 ch, 192 Кбит/с, 48,0 КГц

MI

Общее
Идентификатор : 1 (0x1)
Полное имя : F:\Фильмы торренты\Pasecnik-2.2016.HDTV.(1080i).MediaClub\Pasecnik-2.(01.seriya).2016.HDTV.(1080i).MediaClub.ts
Формат : MPEG-TS
Размер файла : 2,61 Гбайт
Продолжительность : 44 м.
Режим общего битрейта : Переменный
Общий поток : 8480 Кбит/сек
Видео
Идентификатор : 901 (0x385)
Идентификатор меню : 1116 (0x45C)
Формат : AVC
Формат/Информация : Advanced Video Codec
Профиль формата : Main@L4.0
Параметр CABAC формата : Да
Параметр ReFrames формата : 2 кадра
Идентификатор кодека : 27
Продолжительность : 44 м.
Битрейт : 7867 Кбит/сек
Ширина : 1920 пикселей
Высота : 1080 пикселей
Соотношение сторон : 16:9
Частота кадров : 25,000 кадров/сек
Цветовое пространство : YUV
Субдискретизация насыщенности : 4:2:0
Битовая глубина : 8 бит
Тип развёртки : MBAFF
Бит/(Пиксели*Кадры) : 0.152
Размер потока : 2,42 Гбайт (93%)
Основные цвета : BT.709
Характеристики трансфера : BT.709
Коэффициенты матрицы : BT.709
Аудио
Идентификатор : 902 (0x386)
Идентификатор меню : 1116 (0x45C)
Формат : MPEG Audio
Версия формата : Version 1
Профиль формата : Layer 2
Идентификатор кодека : 3
Продолжительность : 44 м.
Вид битрейта : Постоянный
Битрейт : 192 Кбит/сек
Каналы : 2 канала
Частота : 48,0 КГц
Метод сжатия : С потерями
Задержка видео : -80 мс.
Размер потока : 60,5 Мбайт (2%)
Язык : Russian

Внимание! Раздача ведётся путём добавления новых серий!

Внимание! Раздача ведётся путём добавления новых серий; при каждом добавлении создfётся новый торрент. Чтобы начать докачку новой серии, пользователям необходимо сделать следующее: (1) остановить скачивание, (2) удалить старый торрент у себя из клиента (старые серии удалять не надо), (3) скачать новый торрент и запустить его у себя в клиенте вместо старого, при этом указать клиенту путь в старую папку куда и должно происходить скачивание новых серий.
Ваш клиент при этом должен произвести хеширование (проверку) старой папки (если не производит сам - помогите ему сделать это), и будет докачивать только те серии которых у вас ещё нет. Старые серии при этом не удаляются, а продолжают раздаваться!
Eсли вы уже удалили старые серии, то предотвратить повторную закачку старых серий можно, отжав галочку в соответсвующих местах при запуске нового торрента.

Скриншоты

[Цитировать]



Показать сообщения:    

Текущее время: 11-Дек 09:09

Часовой пояс: UTC + 3


Вы не можете начинать темы
Вы не можете отвечать на сообщения
Вы не можете редактировать свои сообщения
Вы не можете удалять свои сообщения
Вы не можете голосовать в опросах
Вы не можете прикреплять файлы к сообщениям
Вы не можете скачивать файлы

!ВНИМАНИЕ!
Сайт не предоставляет электронные версии произведений, а занимается лишь коллекционированием и каталогизацией ссылок, присылаемых и публикуемых на форуме нашими читателями. Если вы являетесь правообладателем какого-либо представленного материала и не желаете, чтобы ссылка на него находилась в нашем каталоге, свяжитесь с нами, и мы незамедлительно удалим ее. Файлы для обмена на трекере предоставлены пользователями сайта, и администрация не несет ответственности за их содержание. Просьба не заливать файлы, защищенные авторскими правами, а также файлы нелегального содержания!