[ Сегодня идет свободное скачивание без начисления Download ]


Статистика раздачи
Нет
 
   
 
Top  
 
 
Лихорадка / Cabin Fever (2016) WEB-DLRip - Производство: США
Жанр: Ужасы
Режиссер: Трэвис Заривны
Продюсер: Ивэн Астровски, Кристофер Лемоул, Тим Заджарос
Актеры: Гейдж Голайтли, Мэттью Даддарио, Надин Крокер, Дастин Ингрэм, Сэмюэл Дэвис, Рэнди Шульман, Луиз Линтон, Элай Рот, Тереза Дечер, Лаура Кенни, Джордж Гриффит, Тед Пфайфер, Ричард Дж. Борон.
Описание:
Группа из трех молодых людей и двух девушек приезжает на неделю в дом на живописном озере – впереди их ждут пьянки, гулянки и безудержное веселье. Однако отдых не задается с самого начала – вечером в дом заявляется изуродованный мужчина, зараженный какой-то непонятной болезнью, и, пытаясь прогнать его, ребята случайно его поджигают. А на следующий день одна из девушек обнаруживает кровавые язвы у себя…

Дата мировой премьеры: 12 февраля 2016
Продолжительность: 01:38:24
Качество видео: WEB-DLRip
Перевод: Одноголосый закадровый, любительский
Озвучка / Автор перевода: Хихикающий доктор
Субтитры: Отсутствуют
Видео: Xvid, 720x296, ~1856 Кбит/с
Аудио: AC3, 2 ch, 192 Кбит/с, CBR

Mediainfo:

Общее
Полное имя                               : D:\FILMЬl\2016 MONK\Lihoradka.2016.avi
Формат                                   : AVI
Формат/Информация                        : Audio Video Interleave
Профиль формата                          : OpenDML
Размер файла                             : 1,42 Гбайт
Продолжительность                        : 1 ч. 38 м.
Общий поток                              : 2060 Кбит/сек
Название фильма                          : Cabin.Fever.2016
Программа кодирования                    : Lavf56.25.101
Видео
Идентификатор                            : 0
Формат                                   : xvid
Идентификатор кодека                     : xvid
Продолжительность                        : 1 ч. 38 м.
Битрейт                                  : 1856 Кбит/сек
Ширина                                   : 720 пикселей
Высота                                   : 296 пикселей
Соотношение сторон                       : 2,40:1
Частота кадров                           : 23,976 кадра/сек
Бит/(Пиксели*Кадры)                      : 0.363
Размер потока                            : 1,28 Гбайт (90%)
Заголовок                                : Cabin.Fever.2016
Аудио
Идентификатор                            : 1
Формат                                   : AC-3
Формат/Информация                        : Audio Coding 3
Расширение режима                        : CM (complete main)
Параметр Endianness формата              : Big
Идентификатор кодека                     : 2000
Продолжительность                        : 1 ч. 38 м.
Вид битрейта                             : Постоянный
Битрейт                                  : 192 Кбит/сек
Каналы                                   : 2 канала
Расположение каналов                     : Front: L R
Частота                                  : 44,1 КГц
Битовая глубина                          : 16 бит
Метод сжатия                             : С потерями
Размер потока                            : 135 Мбайт (9%)
Выравнивание                             : Соединение по промежуткам
Продолжительность промежутка             : 35  мс. (0,84 видеокадр)
Заголовок                                : Xixidoktor
Скриншоты:

[Цитировать]

Топик был перенесен из форума Новинки кинопроката в форум Ужасы
Henkok



Показать сообщения:    

Текущее время: 09-Дек 20:29

Часовой пояс: UTC + 3


Вы не можете начинать темы
Вы не можете отвечать на сообщения
Вы не можете редактировать свои сообщения
Вы не можете удалять свои сообщения
Вы не можете голосовать в опросах
Вы не можете прикреплять файлы к сообщениям
Вы не можете скачивать файлы

!ВНИМАНИЕ!
Сайт не предоставляет электронные версии произведений, а занимается лишь коллекционированием и каталогизацией ссылок, присылаемых и публикуемых на форуме нашими читателями. Если вы являетесь правообладателем какого-либо представленного материала и не желаете, чтобы ссылка на него находилась в нашем каталоге, свяжитесь с нами, и мы незамедлительно удалим ее. Файлы для обмена на трекере предоставлены пользователями сайта, и администрация не несет ответственности за их содержание. Просьба не заливать файлы, защищенные авторскими правами, а также файлы нелегального содержания!