[ Сегодня идет свободное скачивание без начисления Download ]


Статистика раздачи
Нет
 
   
 
Top  
 
 
007: СПЕКТР / Spectre Название: 007: СПЕКТР
Оригинальное название: Spectre
Год выпуска: 2015
Страна: Великобритания, США
Жанр: боевик, триллер, приключения
Продолжительность: 02:28:06
Перевод: Дубляж
Субтитры: русские (Форсированные), русские (Полные), английские (Полные)
Режиссер: Сэм Мендес
В ролях: Дэниэл Крэйг (James Bond), Кристоф Вальц (Blofeld), Леа Сейду (Madeleine), Рэйф Файнс (M), Моника Беллуччи (Lucia), Бен Уишоу (Q), Наоми Харрис (Moneypenny), Дэйв Батиста (Hinx), Эндрю Скотт (C), Рори Киннер (Tanner), Еспер Кристенсен (Mr. White), Алессандро Кремона (Marco Sciarra)
Описание:
Зашифрованное послание из неизвестного источника выводит Бонда на след зловещей глобальной организации под кодовым названием СПЕКТР, в то время как М пытается спасти секретную разведывательную службу от ликвидации.
Рейтинг:

MPAA: PG-13 - Детям до 13 лет просмотр не желателен
Качество: BDRip-AVC 60fps
Формат: MKV
Видео: AVC, 1024x432 (2.35:1), 3170 kbps, 59,940 fps, 0,120 bpp
Аудио: русский / AC3 / 5.1 / 48 kHz / 640 kbps / 16 bit
Навигация по главам: есть

ОтчетМедиаИнфо

General
Unique ID : 198476682889097614723285065009512252309
Format : Matroska
Format version : Version 4 / Version 2
File size : 3.94 GiB
Duration : 2h 28mn
Overall bit rate : 3 813 Kbps
Movie name : Tiberiumsun69
Encoded date : UTC 2016-02-17 21:35:07
Writing application : mkvmerge v8.3.0 ('Over the Horizon') 64bit
Writing library : libebml v1.3.1 + libmatroska v1.4.2
Attachment : Yes
Video
ID : 1
Format : AVC
Format/Info : Advanced Video Codec
Format profile : High@L4.1
Format settings, CABAC : Yes
Format settings, ReFrames : 4 frames
Codec ID : V_MPEG4/ISO/AVC
Duration : 2h 28mn
Bit rate : 3 170 Kbps
Width : 1 024 pixels
Height : 432 pixels
Display aspect ratio : 2.35:1
Frame rate : 59.940 fps
Color space : YUV
Chroma subsampling : 4:2:0
Bit depth : 8 bits
Scan type : Progressive
Bits/(Pixel*Frame) : 0.120
Stream size : 3.20 GiB (81%)
Title : Tiberiumsun69
Writing library : x264 core 146 r2538 121396c
Encoding settings : cabac=1 / ref=3 / deblock=1:0:0 / analyse=0x3:0x113 / me=umh / subme=11 / psy=1 / psy_rd=1.00:0.10 / mixed_ref=1 / me_range=32 / chroma_me=1 / trellis=2 / 8x8dct=1 / cqm=0 / deadzone=21,11 / fast_pskip=0 / chroma_qp_offset=-3 / threads=12 / lookahead_threads=3 / sliced_threads=0 / nr=0 / decimate=1 / interlaced=0 / bluray_compat=0 / constrained_intra=0 / bframes=16 / b_pyramid=2 / b_adapt=2 / b_bias=0 / direct=3 / weightb=1 / open_gop=0 / weightp=2 / keyint=250 / keyint_min=25 / scenecut=40 / intra_refresh=0 / rc_lookahead=40 / rc=2pass / mbtree=1 / bitrate=3170 / ratetol=1.0 / qcomp=0.60 / qpmin=0 / qpmax=69 / qpstep=4 / cplxblur=20.0 / qblur=0.5 / vbv_maxrate=14000 / vbv_bufsize=14000 / nal_hrd=none / filler=0 / ip_ratio=1.40 / aq=1:1.00
Language : English
Default : Yes
Forced : No
Audio
ID : 2
Format : AC-3
Format/Info : Audio Coding 3
Mode extension : CM (complete main)
Codec ID : A_AC3
Duration : 2h 28mn
Bit rate mode : Constant
Bit rate : 640 Kbps
Channel(s) : 6 channels
Channel positions : Front: L C R, Side: L R, LFE
Sampling rate : 48.0 KHz
Bit depth : 16 bits
Compression mode : Lossy
Stream size : 678 MiB (17%)
Title : Дубляж
Language : Russian
Default : Yes
Forced : No
Text #1
ID : 3
Format : UTF-8
Codec ID : S_TEXT/UTF8
Codec ID/Info : UTF-8 Plain Text
Title : Форсированные
Language : Russian
Default : Yes
Forced : No
Text #2
ID : 4
Format : UTF-8
Codec ID : S_TEXT/UTF8
Codec ID/Info : UTF-8 Plain Text
Title : Полные
Language : Russian
Default : No
Forced : No
Text #3
ID : 5
Format : UTF-8
Codec ID : S_TEXT/UTF8
Codec ID/Info : UTF-8 Plain Text
Title : Полные
Language : English
Default : No
Forced : No
Menu
00:00:00.000 : :Chapter 01
00:06:09.118 : :Chapter 02
00:13:04.784 : :Chapter 03
00:18:58.470 : :Chapter 04
00:24:46.776 : :Chapter 05
00:28:04.057 : :Chapter 06
00:32:15.558 : :Chapter 07
00:36:58.591 : :Chapter 08
00:41:56.639 : :Chapter 09
00:46:13.145 : :Chapter 10
00:50:51.923 : :Chapter 11
00:53:43.220 : :Chapter 12
01:00:21.367 : :Chapter 13
01:06:48.212 : :Chapter 14
01:10:58.963 : :Chapter 15
01:15:14.092 : :Chapter 16
01:18:55.647 : :Chapter 17
01:26:11.040 : :Chapter 18
01:29:39.999 : :Chapter 19
01:36:43.547 : :Chapter 20
01:41:44.389 : :Chapter 21
01:49:06.414 : :Chapter 22
01:55:52.820 : :Chapter 23
01:59:39.213 : :Chapter 24
02:04:19.743 : :Chapter 25
02:09:28.510 : :Chapter 26
02:14:05.662 : :Chapter 27
02:19:42.374 : :Chapter 28
02:28:06.627 : :Chapter 29
Авторство группы

[Цитировать]



Показать сообщения:    

Текущее время: 09-Дек 20:27

Часовой пояс: UTC + 3


Вы не можете начинать темы
Вы не можете отвечать на сообщения
Вы не можете редактировать свои сообщения
Вы не можете удалять свои сообщения
Вы не можете голосовать в опросах
Вы не можете прикреплять файлы к сообщениям
Вы не можете скачивать файлы

!ВНИМАНИЕ!
Сайт не предоставляет электронные версии произведений, а занимается лишь коллекционированием и каталогизацией ссылок, присылаемых и публикуемых на форуме нашими читателями. Если вы являетесь правообладателем какого-либо представленного материала и не желаете, чтобы ссылка на него находилась в нашем каталоге, свяжитесь с нами, и мы незамедлительно удалим ее. Файлы для обмена на трекере предоставлены пользователями сайта, и администрация не несет ответственности за их содержание. Просьба не заливать файлы, защищенные авторскими правами, а также файлы нелегального содержания!