[ Сегодня идет свободное скачивание без начисления Download ]


Статистика раздачи
Нет
 
   
 
Top  
 
 
Третий лишний: Дилогия / Ted: Dilogy

Внимание!

В обоих фильмах перевод содержит нецензурную лексику!

Третий лишний (Unrated)

-Название: Третий лишний
Оригинальное название: Ted
Год выпуска: 2012
Страна: США
Жанр: фэнтези, комедия
Продолжительность: 01:52:15
Перевод: Авторский (одноголосый)
Субтитры: русские (Полные), английские (Полные)
Режиссер: Сет МакФарлейн
В ролях: Марк Уолберг (John Bennett), Мила Кунис (Lori Collins), Сет МакФарлейн (Ted, озвучка), Джоэл МакХэйл (Rex), Джованни Рибизи (Donny), Патрик Варбертон (Guy), Мэтт Уолш (Thomas), Билл Смитрович (Frank), Аэдин Минкс (Robert), Сэм Дж. Джонс (Sam Jones), Патрик Стюарт (рассказчик, озвучка), Джессика Барт (Tami-Lynn)
Описание:
Джон влюблен в красавицу Лори. Он работает в прокате автомобилей и имеет большие планы на будущее. Но в их отношения вмешивается третий, давний друг Джона - Тед. Он отрывается сутки напролет, предпочитает случайные связи и не желает терять друга. Но никто на самом деле не знает на что он способен, ведь Тед - большой плюшевый медведь.
Рейтинг:

MPAA: R - Лицам до 17 лет обязательно присутствие взрослого
Качество: BDRip-AVC 60fps
Формат: MKV
Видео: AVC, 1024x552 (1.855), 4350 kbps, 59,940 fps, 0,128 bpp
Аудио: русский / AC3 / 5.1 / 48 kHz / 640 kbps / 16 bit |Дасаевич по тексту от Гоблина|
Навигация по главам: есть

ОтчетМедиаИнфо

General
Unique ID : 171767359312756449234644778789170082761 (0x813930A8E0CDE1E690B19D46EB3873C9)
Format : Matroska
Format version : Version 4 / Version 2
File size : 3.92 GiB
Duration : 1h 52mn
Overall bit rate : 4 994 Kbps
Movie name : Tiberiumsun69
Encoded date : UTC 2016-02-18 22:18:47
Writing application : mkvmerge v8.3.0 ('Over the Horizon') 64bit
Writing library : libebml v1.3.1 + libmatroska v1.4.2
Attachment : Yes
Video
ID : 1
Format : AVC
Format/Info : Advanced Video Codec
Format profile : High@L4.1
Format settings, CABAC : Yes
Format settings, ReFrames : 4 frames
Codec ID : V_MPEG4/ISO/AVC
Duration : 1h 52mn
Bit rate : 4 350 Kbps
Width : 1 024 pixels
Height : 552 pixels
Display aspect ratio : 1.855
Frame rate : 59.940 fps
Color space : YUV
Chroma subsampling : 4:2:0
Bit depth : 8 bits
Scan type : Progressive
Bits/(Pixel*Frame) : 0.128
Stream size : 3.34 GiB (85%)
Title : TIberiumsun69
Writing library : x264 core 146 r2538 121396c
Encoding settings : cabac=1 / ref=3 / deblock=1:0:0 / analyse=0x3:0x113 / me=umh / subme=9 / psy=1 / psy_rd=1.00:0.10 / mixed_ref=1 / me_range=32 / chroma_me=1 / trellis=2 / 8x8dct=1 / cqm=0 / deadzone=21,11 / fast_pskip=0 / chroma_qp_offset=-3 / threads=12 / lookahead_threads=3 / sliced_threads=0 / nr=0 / decimate=1 / interlaced=0 / bluray_compat=0 / constrained_intra=0 / bframes=16 / b_pyramid=2 / b_adapt=2 / b_bias=0 / direct=3 / weightb=1 / open_gop=0 / weightp=2 / keyint=250 / keyint_min=25 / scenecut=40 / intra_refresh=0 / rc_lookahead=40 / rc=2pass / mbtree=1 / bitrate=4350 / ratetol=1.0 / qcomp=0.60 / qpmin=0 / qpmax=69 / qpstep=4 / cplxblur=20.0 / qblur=0.5 / vbv_maxrate=14000 / vbv_bufsize=14000 / nal_hrd=none / filler=0 / ip_ratio=1.40 / aq=1:1.00
Language : English
Default : Yes
Forced : No
Audio
ID : 2
Format : AC-3
Format/Info : Audio Coding 3
Mode extension : CM (complete main)
Codec ID : A_AC3
Duration : 1h 52mn
Bit rate mode : Constant
Bit rate : 640 Kbps
Channel(s) : 6 channels
Channel positions : Front: L C R, Side: L R, LFE
Sampling rate : 48.0 KHz
Bit depth : 16 bits
Compression mode : Lossy
Stream size : 514 MiB (13%)
Title : AVO Дасаевич по тексту от Гоблина
Language : Russian
Default : Yes
Forced : No
Text #1
ID : 3
Format : UTF-8
Codec ID : S_TEXT/UTF8
Codec ID/Info : UTF-8 Plain Text
Title : Полные
Language : Russian
Default : No
Forced : No
Text #2
ID : 4
Format : UTF-8
Codec ID : S_TEXT/UTF8
Codec ID/Info : UTF-8 Plain Text
Title : Полные
Language : English
Default : No
Forced : No
Menu
00:00:00.000 : en:00:00:00.000
00:04:15.255 : en:00:04:15.255
00:11:35.069 : en:00:11:35.069
00:17:18.204 : en:00:17:18.204
00:21:47.514 : en:00:21:47.514
00:28:31.376 : en:00:28:31.376
00:34:01.331 : en:00:34:01.331
00:37:43.553 : en:00:37:43.553
00:44:59.155 : en:00:44:59.155
00:52:13.171 : en:00:52:13.171
00:57:34.826 : en:00:57:34.826
01:03:45.280 : en:01:03:45.280
01:08:43.244 : en:01:08:43.244
01:13:21.522 : en:01:13:21.522
01:18:08.892 : en:01:18:08.892
01:22:39.496 : en:01:22:39.496
01:29:17.101 : en:01:29:17.101
01:37:26.465 : en:01:37:26.465
01:41:08.687 : en:01:41:08.687
01:46:46.608 : en:01:46:46.608

Третий лишний 2 (Unrated Cut)

Название: Третий лишний 2
Оригинальное название: Ted 2
Год выпуска: 2015
Страна: США
Жанр: комедия
Продолжительность: 02:05:51
Перевод: Авторский (одноголосый)
Субтитры: английские (Полные)
Режиссер: Сет МакФарлейн
В ролях: Марк Уолберг (John), Сет МакФарлейн (Ted, озвучка), Аманда Сайфред (Samantha), Джованни Рибизи (Donny), Джон Слэттери (Shep Wild), Морган Фриман (Patrick Meighan), Джессика Барт (Tami-Lynn), Сэм Дж. Джонс (Sam J. Jones), Патрик Варбертон (Guy), Майкл Дорн (Rick), Билл Смитрович (Frank), Коко Браун (Joy)
Описание:
Плюшевый беспредельщик продолжает сводить с ума чопорную интеллигенцию. На этот раз говорящий медвежонок с большим эго и его длинноногая блондинка решили завести ребёнка. Там, где не постаралась природа, на помощь приходят звёздные доноры, городские сумасшедшие и верный друг Джонни. Он только что расстался с Лори и готов к новым авантюрам. Третий здесь совсем не лишний.
Рейтинг:

MPAA: R - Лицам до 17 лет обязательно присутствие взрослого
Качество: BDRip-AVC 60fps
Формат: MKV
Видео: AVC, 1024x424 (2.40:1), 3600 kbps, 59,940 fps, 0,138 bpp
Аудио: русский / AC3 / 5.1 / 48 kHz / 640 kbps / 16 bit |Есарев|
Навигация по главам: есть

ОтчетМедиаИнфо

General
Unique ID : 198836239526984879974909825302567277811 (0x9596777E76C7E3029572C27A5D0754F3)
Format : Matroska
Format version : Version 4 / Version 2
File size : 3.73 GiB
Duration : 2h 5mn
Overall bit rate : 4 245 Kbps
Movie name : Tiberiumsun69
Encoded date : UTC 2016-02-21 06:27:03
Writing application : mkvmerge v8.3.0 ('Over the Horizon') 64bit
Writing library : libebml v1.3.1 + libmatroska v1.4.2
Attachment : Yes
Video
ID : 1
Format : AVC
Format/Info : Advanced Video Codec
Format profile : High@L4.1
Format settings, CABAC : Yes
Format settings, ReFrames : 4 frames
Codec ID : V_MPEG4/ISO/AVC
Duration : 2h 5mn
Bit rate : 3 600 Kbps
Width : 1 024 pixels
Height : 424 pixels
Display aspect ratio : 2.40:1
Frame rate : 59.940 fps
Color space : YUV
Chroma subsampling : 4:2:0
Bit depth : 8 bits
Scan type : Progressive
Bits/(Pixel*Frame) : 0.138
Stream size : 3.09 GiB (83%)
Title : Tiberiumsun69
Writing library : x264 core 146 r2538 121396c
Encoding settings : cabac=1 / ref=3 / deblock=1:0:0 / analyse=0x3:0x113 / me=umh / subme=9 / psy=1 / psy_rd=1.00:0.10 / mixed_ref=1 / me_range=32 / chroma_me=1 / trellis=2 / 8x8dct=1 / cqm=0 / deadzone=21,11 / fast_pskip=0 / chroma_qp_offset=-3 / threads=12 / lookahead_threads=3 / sliced_threads=0 / nr=0 / decimate=1 / interlaced=0 / bluray_compat=0 / constrained_intra=0 / bframes=16 / b_pyramid=2 / b_adapt=2 / b_bias=0 / direct=3 / weightb=1 / open_gop=0 / weightp=2 / keyint=250 / keyint_min=25 / scenecut=40 / intra_refresh=0 / rc_lookahead=40 / rc=2pass / mbtree=1 / bitrate=3600 / ratetol=1.0 / qcomp=0.60 / qpmin=0 / qpmax=69 / qpstep=4 / cplxblur=20.0 / qblur=0.5 / vbv_maxrate=14000 / vbv_bufsize=14000 / nal_hrd=none / filler=0 / ip_ratio=1.40 / aq=1:1.00
Language : English
Default : Yes
Forced : No
Audio
ID : 2
Format : AC-3
Format/Info : Audio Coding 3
Mode extension : CM (complete main)
Codec ID : A_AC3
Duration : 2h 5mn
Bit rate mode : Constant
Bit rate : 640 Kbps
Channel(s) : 6 channels
Channel positions : Front: L C R, Side: L R, LFE
Sampling rate : 48.0 KHz
Bit depth : 16 bits
Compression mode : Lossy
Stream size : 576 MiB (15%)
Title : AVO Esarev
Language : Russian
Default : No
Forced : No
Text
ID : 3
Format : UTF-8
Codec ID : S_TEXT/UTF8
Codec ID/Info : UTF-8 Plain Text
Title : Полные
Language : English
Default : No
Forced : No
Menu
00:00:00.000 : en:00:00:00.000
00:09:08.006 : en:00:09:08.006
00:17:30.508 : en:00:17:30.508
00:22:03.906 : en:00:22:03.906
00:30:27.409 : en:00:30:27.409
00:39:22.402 : en:00:39:22.402
00:48:15.226 : en:00:48:15.226
00:53:39.550 : en:00:53:39.550
01:00:09.356 : en:01:00:09.356
01:04:54.057 : en:01:04:54.057
01:10:15.044 : en:01:10:15.044
01:16:16.238 : en:01:16:16.238
01:20:26.780 : en:01:20:26.780
01:26:08.830 : en:01:26:08.830
01:32:42.682 : en:01:32:42.682
01:39:39.473 : en:01:39:39.473
01:45:14.224 : en:01:45:14.224
01:49:59.218 : en:01:49:59.218
01:54:50.217 : en:01:54:50.217
01:58:43.491 : en:01:58:43.491
Авторство группы

[Цитировать]



Показать сообщения:    

Текущее время: 19-Фев 14:48

Часовой пояс: UTC + 3


Вы не можете начинать темы
Вы не можете отвечать на сообщения
Вы не можете редактировать свои сообщения
Вы не можете удалять свои сообщения
Вы не можете голосовать в опросах
Вы не можете прикреплять файлы к сообщениям
Вы не можете скачивать файлы

!ВНИМАНИЕ!
Сайт не предоставляет электронные версии произведений, а занимается лишь коллекционированием и каталогизацией ссылок, присылаемых и публикуемых на форуме нашими читателями. Если вы являетесь правообладателем какого-либо представленного материала и не желаете, чтобы ссылка на него находилась в нашем каталоге, свяжитесь с нами, и мы незамедлительно удалим ее. Файлы для обмена на трекере предоставлены пользователями сайта, и администрация не несет ответственности за их содержание. Просьба не заливать файлы, защищенные авторскими правами, а также файлы нелегального содержания!