[ Сегодня идет свободное скачивание без начисления Download ]


Статистика раздачи
Качаю: [ 1 ]
Скачал: [ 5 ]
 
   
 
Top  
 
 
Властелин колец: Трилогия / The Lord of the Rings: Trilogy

Властелин колец: Братство кольца (Extended Edition)

Название: Властелин колец: Братство кольца
Оригинальное название: The Lord of the Rings: The Fellowship of the Ring
Год выпуска: 2001
Страна: США, Новая Зеландия
Жанр: фэнтези, приключения
Продолжительность: 03:48:18
Перевод: DUB + MVO, MVO, AVO, Original
Субтитры: русские (форсированные), русские (полные), английские (Полные)
Режиссер: Питер Джексон
В ролях: Элайджа Вуд (Frodo), Иэн МакКеллен (Gandalf), Вигго Мортенсен (Aragorn), Шон Бин (Boromir), Орландо Блум (Legolas), Джон Рис-Дэвис (Gimli), Иэн Холм (Bilbo), Шон Эстин (Sam), Билли Бойд (Pippin), Доминик Монахэн (Merry), Хьюго Уивинг (Elrond), Кейт Бланшетт (Galadriel)
Описание:
Сказания о Средиземье - это хроника Великой войны за Кольцо, войны, длившейся не одну тысячу лет. Тот, кто владел Кольцом, получал власть над всеми живыми тварями, но был обязан служить злу.
Тихая деревня, где живут хоббиты. Волшебник Гэндальф, придя на 111-й день рождения к своему старому другу Бильбо Бэггинсу, начинает вести разговор о кольце, которое Бильбо нашел много лет назад. Это кольцо принадлежало когда-то темному властителю Средиземья Саурону, и оно дает большую власть своему обладателю. Теперь Саурон хочет вернуть себе власть над Средиземьем. Бильбо отдает найденное кольцо своему племяннику Фродо, который пытается научиться справляться с тем страшным могуществом, которое дает ему кольцо...
Рейтинг:

MPAA: PG-13 - Детям до 13 лет просмотр не желателен
Качество: BDRip-AVC 60fps
Формат: MKV
Видео: AVC, 1024x424 (2.40:1), 2800 kbps, 59,940 fps, 0,108 bpp
Аудио №1: русский / AC3 / 5.1 / 48 kHz / 448 kbps / 16 bit |Dub + MVO Позитив на реж. вставки|
Аудио №2: русский / AC3 / 5.1 / 48 kHz / 640 kbps / 16 bit |МVO Позитив|
Аудио №3: русский / AC3 / 5.1 / 48 kHz / 640 kbps / 16 bit |MVO Киномания / SRI|
Аудио №4: русский / AC3 / 5.1 / 48 kHz / 640 kbps / 16 bit |AVO Гаврилов|
Аудио №5: русский / AC3 / 5.1 / 48 kHz / 640 kbps / 16 bit |AVO Рябов|
Аудио №6: английский / AC3 / 5.1 / 48 kHz / 640 kbps / 16 bit
Навигация по главам: есть

ОтчетМедиаИнфо

General
Unique ID : 235487003723760302678577618161881520825 (0xB12925AECE1127FF867B86D04E5B1AB9)
Format : Matroska
Format version : Version 4 / Version 2
File size : 10.3 GiB
Duration : 3h 48mn
Overall bit rate : 6 453 Kbps
Movie name : Tiberiumsun69
Encoded date : UTC 2016-02-16 15:24:32
Writing application : mkvmerge v8.3.0 ('Over the Horizon') 64bit
Writing library : libebml v1.3.1 + libmatroska v1.4.2
Cover : Yes
Attachments : Cover.png
Video
ID : 1
Format : AVC
Format/Info : Advanced Video Codec
Format profile : [email protected]
Format settings, CABAC : Yes
Format settings, ReFrames : 4 frames
Codec ID : V_MPEG4/ISO/AVC
Duration : 3h 48mn
Bit rate : 2 800 Kbps
Width : 1 024 pixels
Height : 424 pixels
Display aspect ratio : 2.40:1
Frame rate mode : Constant
Frame rate : 59.940 (59940/1000) fps
Color space : YUV
Chroma subsampling : 4:2:0
Bit depth : 8 bits
Scan type : Progressive
Bits/(Pixel*Frame) : 0.108
Stream size : 4.27 GiB (41%)
Title : Tiberiumsun69
Writing library : x264 core 146 r2538 121396c
Encoding settings : cabac=1 / ref=3 / deblock=1:0:0 / analyse=0x3:0x113 / me=umh / subme=11 / psy=1 / psy_rd=1.00:0.10 / mixed_ref=1 / me_range=32 / chroma_me=1 / trellis=2 / 8x8dct=1 / cqm=0 / deadzone=21,11 / fast_pskip=0 / chroma_qp_offset=-3 / threads=12 / lookahead_threads=3 / sliced_threads=0 / nr=0 / decimate=1 / interlaced=0 / bluray_compat=0 / constrained_intra=0 / bframes=16 / b_pyramid=2 / b_adapt=2 / b_bias=0 / direct=3 / weightb=1 / open_gop=0 / weightp=2 / keyint=250 / keyint_min=25 / scenecut=40 / intra_refresh=0 / rc_lookahead=40 / rc=2pass / mbtree=1 / bitrate=2800 / ratetol=1.0 / qcomp=0.60 / qpmin=0 / qpmax=69 / qpstep=4 / cplxblur=20.0 / qblur=0.5 / vbv_maxrate=14000 / vbv_bufsize=14000 / nal_hrd=none / filler=0 / ip_ratio=1.40 / aq=1:1.00
Language : English
Default : Yes
Forced : No
Audio #1
ID : 2
Format : AC-3
Format/Info : Audio Coding 3
Mode extension : CM (complete main)
Format settings, Endianness : Big
Codec ID : A_AC3
Duration : 3h 48mn
Bit rate mode : Constant
Bit rate : 448 Kbps
Channel(s) : 6 channels
Channel positions : Front: L C R, Side: L R, LFE
Sampling rate : 48.0 KHz
Frame rate : 31.250 fps (1536 spf)
Compression mode : Lossy
Stream size : 732 MiB (7%)
Title : Дубляж + MVO Позитив-Мультимедиа [на расширенные места]
Language : Russian
Default : Yes
Forced : No
Audio #2
ID : 3
Format : AC-3
Format/Info : Audio Coding 3
Mode extension : CM (complete main)
Format settings, Endianness : Big
Codec ID : A_AC3
Duration : 3h 48mn
Bit rate mode : Constant
Bit rate : 640 Kbps
Channel(s) : 6 channels
Channel positions : Front: L C R, Side: L R, LFE
Sampling rate : 48.0 KHz
Frame rate : 31.250 fps (1536 spf)
Compression mode : Lossy
Stream size : 1.02 GiB (10%)
Title : MVO Позитив-Мультимедиа
Language : Russian
Default : No
Forced : No
Audio #3
ID : 4
Format : AC-3
Format/Info : Audio Coding 3
Mode extension : CM (complete main)
Format settings, Endianness : Big
Codec ID : A_AC3
Duration : 3h 48mn
Bit rate mode : Constant
Bit rate : 640 Kbps
Channel(s) : 6 channels
Channel positions : Front: L C R, Side: L R, LFE
Sampling rate : 48.0 KHz
Frame rate : 31.250 fps (1536 spf)
Compression mode : Lossy
Stream size : 1.02 GiB (10%)
Title : MVO Киномания/Супербит-СРИ
Language : Russian
Default : No
Forced : No
Audio #4
ID : 5
Format : AC-3
Format/Info : Audio Coding 3
Mode extension : CM (complete main)
Format settings, Endianness : Big
Codec ID : A_AC3
Duration : 3h 48mn
Bit rate mode : Constant
Bit rate : 640 Kbps
Channel(s) : 6 channels
Channel positions : Front: L C R, Side: L R, LFE
Sampling rate : 48.0 KHz
Frame rate : 31.250 fps (1536 spf)
Compression mode : Lossy
Stream size : 1.02 GiB (10%)
Title : AVO А. Гаврилов
Language : Russian
Default : No
Forced : No
Audio #5
ID : 6
Format : AC-3
Format/Info : Audio Coding 3
Mode extension : CM (complete main)
Format settings, Endianness : Big
Codec ID : A_AC3
Duration : 3h 48mn
Bit rate mode : Constant
Bit rate : 640 Kbps
Channel(s) : 6 channels
Channel positions : Front: L C R, Side: L R, LFE
Sampling rate : 48.0 KHz
Frame rate : 31.250 fps (1536 spf)
Compression mode : Lossy
Stream size : 1.02 GiB (10%)
Title : AVO С. Рябов
Language : Russian
Default : No
Forced : No
Audio #6
ID : 7
Format : AC-3
Format/Info : Audio Coding 3
Mode extension : CM (complete main)
Format settings, Endianness : Big
Codec ID : A_AC3
Duration : 3h 48mn
Bit rate mode : Constant
Bit rate : 640 Kbps
Channel(s) : 6 channels
Channel positions : Front: L C R, Side: L R, LFE
Sampling rate : 48.0 KHz
Frame rate : 31.250 fps (1536 spf)
Compression mode : Lossy
Stream size : 1.02 GiB (10%)
Title : Оригинал
Language : English
Default : No
Forced : No
Text #1
ID : 8
Format : UTF-8
Codec ID : S_TEXT/UTF8
Codec ID/Info : UTF-8 Plain Text
Title : форсированные
Language : Russian
Default : Yes
Forced : No
Text #2
ID : 9
Format : UTF-8
Codec ID : S_TEXT/UTF8
Codec ID/Info : UTF-8 Plain Text
Title : полные
Language : Russian
Default : No
Forced : No
Text #3
ID : 10
Format : UTF-8
Codec ID : S_TEXT/UTF8
Codec ID/Info : UTF-8 Plain Text
Title : Полные
Language : English
Default : No
Forced : No
Menu
00:00:00.000 : en: 1. Prologue: One Ring To Rule Them All...
00:07:36.790 : en: 2. Concerning Hobbits
00:10:35.552 : en: 3. The Shire
00:15:39.856 : en: 4. Very Old Friends
00:19:58.489 : en: 5. A Long-expected Party
00:25:32.614 : en: 6. Farewell Dear Bilbo
00:29:57.379 : en: 7. Keep It Secret, Keep It Safe
00:32:10.679 : en: 8. The Account Of Isildur
00:34:51.798 : en: 9. At The Green Dragon
00:36:18.176 : en:10. The Shadow of the Past
00:45:04.160 : en:11. The Passing of the Elves
00:46:44.301 : en:12. Saruman The White
00:51:21.412 : en:13. A Short Cut to Mushrooms
00:55:12.434 : en:14. Bucklebury Ferry
00:57:30.072 : en:15. At the Sign of The Prancing Pony
01:03:31.516 : en:16. The Nazgul
01:07:16.115 : en:17. The Midgewater Marshes
01:08:53.588 : en:18. The Spoiling Of Isengard
01:10:35.940 : en:19. A Knife in the Dark
01:15:15.386 : en:20. The Caverns of Isengard
01:17:46.620 : en:21. Flight to the Ford
01:24:11.546 : en:22. Rivendell
01:26:12.501 : en:23. Many Meetings
01:29:41.585 : en:24. The Fate of the Ring
01:33:14.672 : en:25. The Sword That Was Broken
01:35:54.082 : en:26. The Evenstar
01:37:32.972 : en:27. The Council of Elrond
01:45:45.000 : en:28. Gilraen's Memorial
01:46:59.826 : en:29. Bilbo's Gifts
01:48:43.221 : en:30. The Departure of the Fellowship
01:50:00.631 : en:31. The Ring Goes South
01:53:06.442 : en:32. The Pass of Caradhras
01:57:52.728 : en:33. Moria
02:04:18.113 : en:34. A Journey in the Dark
02:10:48.461 : en:35. Balin's Tomb
02:20:13.192 : en:36. The Bridge of Khazad-Dum
02:29:54.648 : en:37. Lothlorien
02:33:07.299 : en:38. Caras Galadhorn
02:40:24.319 : en:39. The Mirror of Galadriel
02:46:04.325 : en:40. The Fighting Uruk-Hai
02:47:45.676 : en:41. Farewell to Lorien
02:53:08.207 : en:42. The Great River
02:58:00.457 : en:43. Parth Galen
03:04:28.219 : en:44. The Breaking of the Fellowship
03:11:44.155 : en:45. The Departure of Boromir
03:14:26.484 : en:46. The Road Goes Ever On
03:20:44.653 : en:47. Credits
03:28:25.155 : en:48. Official Fan Club Credits

Властелин колец: Две крепости (Extended Edition)

Название: Властелин колец: Две крепости
Оригинальное название: The Lord of the Rings: The Two Towers
Год выпуска: 2002
Страна: США, Новая Зеландия
Жанр: фэнтези, приключения
Продолжительность: 03:55:31
Перевод: DUB + MVO, MVO, AVO, Original
Субтитры: русские (Форсированные), русские (Полные), английские (Полные)
Режиссер: Питер Джексон
В ролях: Элайджа Вуд (Frodo), Шон Эстин (Sam), Орландо Блум (Legolas), Вигго Мортенсен (Aragorn), Иэн МакКеллен (Gandalf), Доминик Монахэн (Merry), Миранда Отто (Eowyn), Джон Рис-Дэвис (Gimli / Voice of Treebeard), Энди Серкис (Gollum), Билли Бойд (Pippin), Кристофер Ли (Saruman), Бернард Хилл (Theoden)
Описание:
Братство распалось, но Кольцо Всевластья должно быть уничтожено. Фродо и Сэм вынуждены доверить свои жизни Голлуму, который взялся провести их к вратам Мордора. Громадная Армия Сарумана приближается: члены братства и их союзники готовы принять бой. Битва за Средиземье продолжается.
Рейтинг:

MPAA: PG-13 - Детям до 13 лет просмотр не желателен
Качество: BDRip-AVC 60fps
Формат: MKV
Видео: AVC, 1024x424 (2.40:1), 2800 kbps, 59,940 fps, 0,108 bpp
Аудио №1: русский / AC3 / 5.1 / 48 kHz / 448 kbps / 16 bit |Dub + MVO Позитив на реж. вставки|
Аудио №2: русский / AC3 / 5.1 / 48 kHz / 640 kbps / 16 bit |МVO Позитив|
Аудио №3: русский / AC3 / 5.1 / 48 kHz / 640 kbps / 16 bit |MVO Киномания / SRI|
Аудио №4: русский / AC3 / 5.1 / 48 kHz / 640 kbps / 16 bit |AVO Гаврилов|
Аудио №5: русский / AC3 / 5.1 / 48 kHz / 640 kbps / 16 bit |AVO Рябов|
Аудио №6: английский / AC3 / 5.1 / 48 kHz / 640 kbps / 16 bit
Навигация по главам: есть

ОтчетМедиаИнфо

General
Unique ID : 211477942565624452966899765413593909142 (0x9F192B934E373D72ABA19095104A8796)
Format : Matroska
Format version : Version 4 / Version 2
File size : 10.6 GiB
Duration : 3h 55mn
Overall bit rate : 6 453 Kbps
Movie name : Tiberiumsun69
Encoded date : UTC 2016-02-18 21:32:22
Writing application : mkvmerge v8.3.0 ('Over the Horizon') 64bit
Writing library : libebml v1.3.1 + libmatroska v1.4.2
Cover : Yes
Attachments : Cover.png
Video
ID : 1
Format : AVC
Format/Info : Advanced Video Codec
Format profile : [email protected]
Format settings, CABAC : Yes
Format settings, ReFrames : 4 frames
Codec ID : V_MPEG4/ISO/AVC
Duration : 3h 55mn
Bit rate : 2 800 Kbps
Width : 1 024 pixels
Height : 424 pixels
Display aspect ratio : 2.40:1
Frame rate mode : Constant
Frame rate : 59.940 (59940/1000) fps
Color space : YUV
Chroma subsampling : 4:2:0
Bit depth : 8 bits
Scan type : Progressive
Bits/(Pixel*Frame) : 0.108
Stream size : 4.40 GiB (41%)
Title : Tiberiumsun69
Writing library : x264 core 146 r2538 121396c
Encoding settings : cabac=1 / ref=3 / deblock=1:0:0 / analyse=0x3:0x113 / me=umh / subme=11 / psy=1 / psy_rd=1.00:0.10 / mixed_ref=1 / me_range=32 / chroma_me=1 / trellis=2 / 8x8dct=1 / cqm=0 / deadzone=21,11 / fast_pskip=0 / chroma_qp_offset=-3 / threads=12 / lookahead_threads=3 / sliced_threads=0 / nr=0 / decimate=1 / interlaced=0 / bluray_compat=0 / constrained_intra=0 / bframes=16 / b_pyramid=2 / b_adapt=2 / b_bias=0 / direct=3 / weightb=1 / open_gop=0 / weightp=2 / keyint=250 / keyint_min=25 / scenecut=40 / intra_refresh=0 / rc_lookahead=40 / rc=2pass / mbtree=1 / bitrate=2800 / ratetol=1.0 / qcomp=0.60 / qpmin=0 / qpmax=69 / qpstep=4 / cplxblur=20.0 / qblur=0.5 / vbv_maxrate=14000 / vbv_bufsize=14000 / nal_hrd=none / filler=0 / ip_ratio=1.40 / aq=1:1.00
Language : English
Default : Yes
Forced : No
Audio #1
ID : 2
Format : AC-3
Format/Info : Audio Coding 3
Mode extension : CM (complete main)
Format settings, Endianness : Big
Codec ID : A_AC3
Duration : 3h 55mn
Bit rate mode : Constant
Bit rate : 448 Kbps
Channel(s) : 6 channels
Channel positions : Front: L C R, Side: L R, LFE
Sampling rate : 48.0 KHz
Frame rate : 31.250 fps (1536 spf)
Compression mode : Lossy
Stream size : 755 MiB (7%)
Title : Dub + MVO Позитив MM на реж. вставки
Language : Russian
Default : Yes
Forced : No
Audio #2
ID : 3
Format : AC-3
Format/Info : Audio Coding 3
Mode extension : CM (complete main)
Format settings, Endianness : Big
Codec ID : A_AC3
Duration : 3h 55mn
Bit rate mode : Constant
Bit rate : 640 Kbps
Channel(s) : 6 channels
Channel positions : Front: L C R, Side: L R, LFE
Sampling rate : 48.0 KHz
Frame rate : 31.250 fps (1536 spf)
Compression mode : Lossy
Stream size : 1.05 GiB (10%)
Title : MVO Позитив MM
Language : Russian
Default : No
Forced : No
Audio #3
ID : 4
Format : AC-3
Format/Info : Audio Coding 3
Mode extension : CM (complete main)
Format settings, Endianness : Big
Codec ID : A_AC3
Duration : 3h 55mn
Bit rate mode : Constant
Bit rate : 640 Kbps
Channel(s) : 6 channels
Channel positions : Front: L C R, Side: L R, LFE
Sampling rate : 48.0 KHz
Frame rate : 31.250 fps (1536 spf)
Compression mode : Lossy
Stream size : 1.05 GiB (10%)
Title : MVO SHI
Language : Russian
Default : No
Forced : No
Audio #4
ID : 5
Format : AC-3
Format/Info : Audio Coding 3
Mode extension : CM (complete main)
Format settings, Endianness : Big
Codec ID : A_AC3
Duration : 3h 55mn
Bit rate mode : Constant
Bit rate : 640 Kbps
Channel(s) : 6 channels
Channel positions : Front: L C R, Side: L R, LFE
Sampling rate : 48.0 KHz
Frame rate : 31.250 fps (1536 spf)
Compression mode : Lossy
Stream size : 1.05 GiB (10%)
Title : AVO Гаврилов
Language : Russian
Default : No
Forced : No
Audio #5
ID : 6
Format : AC-3
Format/Info : Audio Coding 3
Mode extension : CM (complete main)
Format settings, Endianness : Big
Codec ID : A_AC3
Duration : 3h 55mn
Bit rate mode : Constant
Bit rate : 640 Kbps
Channel(s) : 6 channels
Channel positions : Front: L C R, Side: L R, LFE
Sampling rate : 48.0 KHz
Frame rate : 31.250 fps (1536 spf)
Compression mode : Lossy
Stream size : 1.05 GiB (10%)
Title : AVO Рябов
Language : Russian
Default : No
Forced : No
Audio #6
ID : 7
Format : AC-3
Format/Info : Audio Coding 3
Mode extension : CM (complete main)
Format settings, Endianness : Big
Codec ID : A_AC3
Duration : 3h 55mn
Bit rate mode : Constant
Bit rate : 640 Kbps
Channel(s) : 6 channels
Channel positions : Front: L C R, Side: L R, LFE
Sampling rate : 48.0 KHz
Frame rate : 31.250 fps (1536 spf)
Compression mode : Lossy
Stream size : 1.05 GiB (10%)
Title : Оригинал
Language : English
Default : No
Forced : No
Text #1
ID : 8
Format : ASS
Codec ID : S_TEXT/ASS
Codec ID/Info : Advanced Sub Station Alpha
Compression mode : Lossless
Title : Форсированные
Language : Russian
Default : Yes
Forced : No
Text #2
ID : 9
Format : UTF-8
Codec ID : S_TEXT/UTF8
Codec ID/Info : UTF-8 Plain Text
Title : Полные
Language : Russian
Default : No
Forced : No
Text #3
ID : 10
Format : ASS
Codec ID : S_TEXT/ASS
Codec ID/Info : Advanced Sub Station Alpha
Compression mode : Lossless
Title : Полные
Language : English
Default : No
Forced : No
Menu
00:00:00.000 : en: 1. The Foundations of Stone
00:04:08.748 : en: 2. Elven Rope
00:06:10.829 : en: 3. The Taming of Smeagol
00:14:44.967 : en: 4. The Uruk-hai
00:17:06.609 : en: 5. The Three Hunters
00:19:17.948 : en: 6. The Burning of the Westfold
00:23:07.094 : en: 7. Massacre at the Fords of Isen
00:23:58.312 : en: 8. The Banishment of omer
00:27:09.044 : en: 9. On the Trail of the Uruk-hai
00:28:03.181 : en:10. Night Camp at Fangorn
00:31:38.230 : en:11. The Riders of Rohan
00:35:45.518 : en:12. The Fate of Merry and Pippin
00:38:17.879 : en:13. Treebeard
00:41:47.797 : en:14. The Passage of the Marshes
00:50:49.755 : en:15. The White Rider
00:58:19.413 : en:16. The Song of the Entwives
01:00:40.178 : en:17. The Heir of Numenor
01:02:48.306 : en:18. The Black Gate is Closed
01:08:05.999 : en:19. Ent Draft
01:12:41.732 : en:20. The King of the Golden Hall
01:24:17.344 : en:21. The Funeral of Theodred
01:25:41.636 : en:22. Simbelmyne on the Burial Mounds
01:27:34.332 : en:23. The King's Decision
01:30:45.523 : en:24. Brego
01:32:30.587 : en:25. The Ring of Barahir
01:34:31.040 : en:26. A Daughter of Kings
01:35:57.043 : en:27. Exodus from Edoras
01:37:02.316 : en:28. The Forests of Ithilien
01:38:43.960 : en:29. Gollum and Smeagol
01:41:14.819 : en:30. Of Herbs and Stewed Rabbit
01:46:40.000 : en:31. Dwarf Women
01:47:22.793 : en:32. One of the Dunedain
01:49:52.651 : en:33. The Evenstar
01:54:59.207 : en:34. The Wolves of Isengard
02:01:37.396 : en:35. Helm's Deep
02:04:17.515 : en:36. Isengard Unleashed
02:06:53.963 : en:37. The Grace of the Valar
02:08:31.519 : en:38. Arwen's Fate
02:12:14.283 : en:39. The Story Foreseen from Lorien
02:14:40.262 : en:40. The Window on the West
02:18:29.866 : en:41. Sons of the Steward
02:23:09.437 : en:42. The Forbidden Pool
02:30:31.128 : en:43. Aragorn's Return
02:36:04.378 : en:44. Entmoot
02:37:24.250 : en:45. The Glittering Caves
02:40:32.521 : en:46. "Where Is the Horse and the Rider?"
02:42:17.251 : en:47. "Don't Be Hasty, Master Meriadoc!"
02:43:07.926 : en:48. The Host of the Eldar
02:46:42.015 : en:49. The Batter of the Hornburg
02:53:04.397 : en:50. Old Entish
02:54:41.452 : en:51. The Breach of the Deeping Wall
02:58:06.574 : en:52. The Entmoot Decides
02:59:51.721 : en:53. The Retreat to the Hornburg
03:05:54.208 : en:54. Master Peregrin's Plan
03:07:19.293 : en:55. Osgiliath
03:07:54.036 : en:56. The Last March of the Ents
03:10:23.560 : en:57. The Nazgul Attack
03:12:55.545 : en:58. Forth Eorlingas
03:17:34.032 : en:59. The Flooding of Isengard
03:20:00.386 : en:60. The Tales That Really Mattered...
03:24:45.671 : en:61. Fangorn Comes to Helm's Deep
03:25:37.224 : en:62. The Final Tally
03:26:18.764 : en:63. Flotsam and Jetsam
03:28:22.555 : en:64. Farewell to Faramir
03:30:52.413 : en:65. "The Battle for Middle-Earth is About to Begin"
03:32:32.096 : en:66. Gollum's Plan
03:34:56.240 : en:67. End Credits
03:43:52.525 : en:68. Fan Club Credits

Властелин колец: Возвращение Короля (Extended Edition)

Название: Властелин колец: Возвращение Короля
Оригинальное название: The Lord of the Rings: The Return of the King
Год выпуска: 2003
Страна: США, Новая Зеландия
Жанр: фэнтези, приключения
Продолжительность: 04:23:16
Перевод: DUB + MVO, MVO, AVO, Original
Субтитры: русские (Форсированные), русские (Полные), английские (Полные)
Режиссер: Питер Джексон
В ролях: Элайджа Вуд (Frodo), Вигго Мортенсен (Aragorn), Шон Эстин (Sam), Иэн МакКеллен (Gandalf), Орландо Блум (Legolas), Доминик Монахэн (Merry), Билли Бойд (Pippin), Энди Серкис (Gollum / Smeagol), Миранда Отто (Eowyn), Бернард Хилл (Theoden), Карл Урбан (Eomer), Дэвид Уэнэм (Faramir)
Описание:
Последняя часть трилогии о Кольце Всевластия и о героях, взявших на себя бремя спасения Средиземья. Повелитель сил Тьмы Саурон направляет свои бесчисленные рати под стены Минас-Тирита, крепости Последней Надежды. Он предвкушает близкую победу, но именно это и мешает ему заметить две крохотные фигурки - хоббитов, приближающихся к Роковой Горе, где им предстоит уничтожить Кольцо Всевластия. Улыбнется ли им счастье?
Рейтинг:

MPAA: PG-13 - Детям до 13 лет просмотр не желателен
Качество: BDRip-AVC 60fps
Формат: MKV
Видео: AVC, 1024x424 (2.40:1), 2800 kbps, 59,940 fps, 0,108 bpp
Аудио №1: русский / AC3 / 5.1 / 48 kHz / 448 kbps / 16 bit |Dub + MVO Позитив на реж. вставки|
Аудио №2: русский / AC3 / 5.1 / 48 kHz / 640 kbps / 16 bit |МVO Позитив|
Аудио №3: русский / AC3 / 5.1 / 48 kHz / 640 kbps / 16 bit |MVO Киномания / SRI|
Аудио №4: русский / AC3 / 5.1 / 48 kHz / 640 kbps / 16 bit |AVO Гаврилов|
Аудио №5: русский / AC3 / 5.1 / 48 kHz / 640 kbps / 16 bit |AVO Рябов|
Аудио №6: английский / AC3 / 5.1 / 48 kHz / 640 kbps / 16 bit
Навигация по главам: есть

ОтчетМедиаИнфо

General
Unique ID : 241200281049466062143945432906483853094 (0xB5757C00C59BC529816F96B64B8B6726)
Format : Matroska
Format version : Version 4 / Version 2
File size : 11.9 GiB
Duration : 4h 23mn
Overall bit rate : 6 454 Kbps
Movie name : Tiberiumsun69
Encoded date : UTC 2016-02-19 21:15:12
Writing application : mkvmerge v8.3.0 ('Over the Horizon') 64bit
Writing library : libebml v1.3.1 + libmatroska v1.4.2
Cover : Yes
Attachments : Cover.png
Video
ID : 1
Format : AVC
Format/Info : Advanced Video Codec
Format profile : [email protected]
Format settings, CABAC : Yes
Format settings, ReFrames : 4 frames
Codec ID : V_MPEG4/ISO/AVC
Duration : 4h 23mn
Bit rate : 2 800 Kbps
Width : 1 024 pixels
Height : 424 pixels
Display aspect ratio : 2.40:1
Frame rate mode : Constant
Frame rate : 59.940 fps
Color space : YUV
Chroma subsampling : 4:2:0
Bit depth : 8 bits
Scan type : Progressive
Bits/(Pixel*Frame) : 0.108
Stream size : 4.92 GiB (41%)
Title : Tiberiumsun69
Writing library : x264 core 146 r2538 121396c
Encoding settings : cabac=1 / ref=3 / deblock=1:0:0 / analyse=0x3:0x113 / me=umh / subme=11 / psy=1 / psy_rd=1.00:0.10 / mixed_ref=1 / me_range=32 / chroma_me=1 / trellis=2 / 8x8dct=1 / cqm=0 / deadzone=21,11 / fast_pskip=0 / chroma_qp_offset=-3 / threads=12 / lookahead_threads=3 / sliced_threads=0 / nr=0 / decimate=1 / interlaced=0 / bluray_compat=0 / constrained_intra=0 / bframes=16 / b_pyramid=2 / b_adapt=2 / b_bias=0 / direct=3 / weightb=1 / open_gop=0 / weightp=2 / keyint=250 / keyint_min=25 / scenecut=40 / intra_refresh=0 / rc_lookahead=40 / rc=2pass / mbtree=1 / bitrate=2800 / ratetol=1.0 / qcomp=0.60 / qpmin=0 / qpmax=69 / qpstep=4 / cplxblur=20.0 / qblur=0.5 / vbv_maxrate=14000 / vbv_bufsize=14000 / nal_hrd=none / filler=0 / ip_ratio=1.40 / aq=1:1.00
Language : English
Default : Yes
Forced : No
Audio #1
ID : 2
Format : AC-3
Format/Info : Audio Coding 3
Mode extension : CM (complete main)
Format settings, Endianness : Big
Codec ID : A_AC3
Duration : 4h 23mn
Bit rate mode : Constant
Bit rate : 448 Kbps
Channel(s) : 6 channels
Channel positions : Front: L C R, Side: L R, LFE
Sampling rate : 48.0 KHz
Frame rate : 31.250 fps (1536 spf)
Compression mode : Lossy
Stream size : 844 MiB (7%)
Title : Dub + MVO Позитив а реж. места
Language : Russian
Default : Yes
Forced : No
Audio #2
ID : 3
Format : AC-3
Format/Info : Audio Coding 3
Mode extension : CM (complete main)
Format settings, Endianness : Big
Codec ID : A_AC3
Duration : 4h 23mn
Bit rate mode : Constant
Bit rate : 640 Kbps
Channel(s) : 6 channels
Channel positions : Front: L C R, Side: L R, LFE
Sampling rate : 48.0 KHz
Frame rate : 31.250 fps (1536 spf)
Compression mode : Lossy
Stream size : 1.18 GiB (10%)
Title : MVO Позитив
Language : Russian
Default : No
Forced : No
Audio #3
ID : 4
Format : AC-3
Format/Info : Audio Coding 3
Mode extension : CM (complete main)
Format settings, Endianness : Big
Codec ID : A_AC3
Duration : 4h 23mn
Bit rate mode : Constant
Bit rate : 640 Kbps
Channel(s) : 6 channels
Channel positions : Front: L C R, Side: L R, LFE
Sampling rate : 48.0 KHz
Frame rate : 31.250 fps (1536 spf)
Compression mode : Lossy
Stream size : 1.18 GiB (10%)
Title : MVO SRI
Language : Russian
Default : No
Forced : No
Audio #4
ID : 5
Format : AC-3
Format/Info : Audio Coding 3
Mode extension : CM (complete main)
Format settings, Endianness : Big
Codec ID : A_AC3
Duration : 4h 23mn
Bit rate mode : Constant
Bit rate : 640 Kbps
Channel(s) : 6 channels
Channel positions : Front: L C R, Side: L R, LFE
Sampling rate : 48.0 KHz
Frame rate : 31.250 fps (1536 spf)
Compression mode : Lossy
Stream size : 1.18 GiB (10%)
Title : AVO А. Гаврилов
Language : Russian
Default : No
Forced : No
Audio #5
ID : 6
Format : AC-3
Format/Info : Audio Coding 3
Mode extension : CM (complete main)
Format settings, Endianness : Big
Codec ID : A_AC3
Duration : 4h 23mn
Bit rate mode : Constant
Bit rate : 640 Kbps
Channel(s) : 6 channels
Channel positions : Front: L C R, Side: L R, LFE
Sampling rate : 48.0 KHz
Frame rate : 31.250 fps (1536 spf)
Compression mode : Lossy
Stream size : 1.18 GiB (10%)
Title : AVO С. Рябов
Language : Russian
Default : No
Forced : No
Audio #6
ID : 7
Format : AC-3
Format/Info : Audio Coding 3
Mode extension : CM (complete main)
Format settings, Endianness : Big
Codec ID : A_AC3
Duration : 4h 23mn
Bit rate mode : Constant
Bit rate : 640 Kbps
Channel(s) : 6 channels
Channel positions : Front: L C R, Side: L R, LFE
Sampling rate : 48.0 KHz
Frame rate : 31.250 fps (1536 spf)
Compression mode : Lossy
Stream size : 1.18 GiB (10%)
Title : Оригинал
Language : English
Default : No
Forced : No
Text #1
ID : 8
Format : UTF-8
Codec ID : S_TEXT/UTF8
Codec ID/Info : UTF-8 Plain Text
Title : Форсированные
Language : Russian
Default : Yes
Forced : No
Text #2
ID : 9
Format : UTF-8
Codec ID : S_TEXT/UTF8
Codec ID/Info : UTF-8 Plain Text
Title : Полные
Language : Russian
Default : No
Forced : No
Text #3
ID : 10
Format : UTF-8
Codec ID : S_TEXT/UTF8
Codec ID/Info : UTF-8 Plain Text
Title : Полные
Language : English
Default : No
Forced : No
Menu
00:00:00.000 : en: 1. The Finding of the Ring
00:06:24.342 : en: 2. Journey to the Cross-Roads
00:09:21.394 : en: 3. The Road to Isengard
00:11:21.848 : en: 4. The Voice of Saruman
00:18:23.311 : en: 5. Return to Edoras
00:23:05.009 : en: 6. Gollum's Villany
00:27:03.330 : en: 7. Eowyn's Dream
00:29:00.697 : en: 8. The Palantir
00:37:06.433 : en: 9. Arwen's Vision
00:40:02.567 : en:10. The Reforging of Narsil
00:42:03.229 : en:11. Minas Tirith
00:47:52.203 : en:12. The Decline of Gondor
00:50:18.641 : en:13. Cross-Roads of the Fallen King
00:52:18.761 : en:14. "The Deep Breath Before the Plunge"
00:55:35.332 : en:15. Minas Morgul
00:59:36.406 : en:16. Sam's Warning
01:00:23.703 : en:17. Pippin's Task
01:00:50.605 : en:18. Osgiliath Invaded
01:04:30.075 : en:19. The Lighting of the Beacons
01:07:16.032 : en:20. Theoden's Decision
01:10:35.314 : en:21. The Fall of Osgiliath
01:14:54.824 : en:22. The Wizard's Pupil
01:17:21.971 : en:23. The Stairs of Cirith Ungol
01:19:21.799 : en:24. "Courage Is the Best Defense"
01:20:01.088 : en:25. Peregrin of the Tower Guard
01:21:26.799 : en:26. Allegiance to Denethor
01:23:48.941 : en:27. The Parting of Sam and Frodo
01:29:08.593 : en:28. The Sacrifice of Faramir
01:33:57.590 : en:29. Marshalling at Dunharrow
01:38:08.049 : en:30. Anduril - Flame of the West
01:42:49.705 : en:31. Aragorn Takes the Paths of the Dead
01:45:34.245 : en:32. "No More Despair"
01:46:57.453 : en:33. Dwimorberg - the Haunted Mountain
01:49:24.433 : en:34. The Muster of Rohan
01:51:09.997 : en:35. The Paths of the Dead
01:58:39.696 : en:36. The Siege of Gondor
02:07:41.500 : en:37. The Corsairs of Umbar
02:08:42.779 : en:38. Shelob's Lair
02:17:50.451 : en:39. Merry's Simple Courage
02:19:40.770 : en:40. Grond - The Hammer of the Underworld
02:20:17.139 : en:41. The Tomb of the Stewards
02:21:50.775 : en:42. Breaking the Gate of Gondor
02:22:57.591 : en:43. The Choices of Master Samwise
02:28:59.328 : en:44. Denethor's Madness
02:30:04.643 : en:45. The Witch King's Hour
02:32:29.663 : en:46. The Ride of the Rohirrim
02:36:44.084 : en:47. The Pyre of Denethor
02:38:51.169 : en:48. The Battle of Pelennor Fields
02:43:46.714 : en:49. "A Far Green Country"
02:45:17.138 : en:50. The Nazugl and His Prey
02:47:03.077 : en:51. The Black Ships
02:47:55.504 : en:52. Shieldmaiden of Rohan
02:48:39.757 : en:53. Victory at Minas Tirith
02:51:15.454 : en:54. The Passing of Theoden
02:53:18.160 : en:55. Oaths Fulfilled
02:54:25.102 : en:56. The Houses of Healing
02:56:41.113 : en:57. Pippin Looks After Merry
02:57:33.165 : en:58. The Tower of Cirith Ungol
03:04:29.080 : en:59. The Last Debate
03:06:11.433 : en:60. Aragorn Masters the Palantir
03:07:40.522 : en:61. The Captain and the White Lady
03:08:30.655 : en:62. In the Company of Orcs
03:12:12.043 : en:63. The Land of Shadow
03:16:23.753 : en:64. The Mouth of Sauron
03:19:39.657 : en:65. The Black Gate Opens
03:23:13.454 : en:66. "I Can't Carry It for You... But I Can Carry You"
03:25:26.253 : en:67. The Last Move
03:26:29.358 : en:68. Mount Doom
03:28:25.432 : en:69. "The Eagles Are Coming!"
03:28:59.758 : en:70. The Crack of Doom
03:34:38.012 : en:71. Sauron Defeated
03:36:51.396 : en:72. The End of All Things
03:40:20.396 : en:73. The Fellowship Reunited
03:42:43.497 : en:74. The Return of the King
03:47:36.540 : en:75. Homeward Bound
03:52:18.447 : en:76. The Grey Havens
04:01:37.047 : en:77. End Credits
04:12:44.463 : en:78. Fan Club Credits
Авторство группы

[Цитировать]



Показать сообщения:    

Текущее время: 04-Дек 02:57

Часовой пояс: UTC + 3


Вы не можете начинать темы
Вы не можете отвечать на сообщения
Вы не можете редактировать свои сообщения
Вы не можете удалять свои сообщения
Вы не можете голосовать в опросах
Вы не можете прикреплять файлы к сообщениям
Вы не можете скачивать файлы

!ВНИМАНИЕ!
Сайт не предоставляет электронные версии произведений, а занимается лишь коллекционированием и каталогизацией ссылок, присылаемых и публикуемых на форуме нашими читателями. Если вы являетесь правообладателем какого-либо представленного материала и не желаете, чтобы ссылка на него находилась в нашем каталоге, свяжитесь с нами, и мы незамедлительно удалим ее. Файлы для обмена на трекере предоставлены пользователями сайта, и администрация не несет ответственности за их содержание. Просьба не заливать файлы, защищенные авторскими правами, а также файлы нелегального содержания!