[ Сегодня идет свободное скачивание без начисления Download ]


Статистика раздачи
Нет
 
   
 
Top  
 
 
Кровь моей крови / Sangue del mio sangue (2015) BDRip 720p Информация о фильме
Название: Кровь моей крови
Оригинальное название: Sangue del mio sangue
Год выхода: 2015
Жанр: драма, история
Режиссер: Марко Беллоккьо
В ролях: Роберто Херлицка, Пьер Джорджо Беллоккьо, Альба Рорвахер, Лидия Либерман, Федерика Фракасси, Тони Берторелли, Фаусто Руссо Алези, Альберто Кракко, Бруно Карьелло, Филиппо Тими
О фильме: Церковные иерархи устраивают судилище в монастыре Боббио, обвиняя сестру Бенедетту в том, что она соблазнила священника Фабрицио, после чего он покончил с собой. Такое преступление могла совершить только ведьма. Требуя от девушки признания в сатанинских кознях и раскаяния, ее мучители используют самые изощренные пытки огнем и водой. Свидетелем ужасных издевательств становится Федерико, приехавший в монастырь брат-близнец самоубийцы. Он тоже считает Бенедетту преступницей, но и сам становится жертвой ее чар… Так начинается история проклятого монастыря, отголоски которой дойдут до наших дней…

Выпущено: Италия, Франция, Швейцария
Продолжительность: 01:48:29
Озвучивание: Профессиональное (многоголосное) официальное
Примечание: Релиз без рекламы.
Файл
Формат: MKV
Качество: BDRip 720p
Видео: MPEG-4 AVC, 4253 kb/s, 1280x690
Аудио: Russian: AC3, 192 kb/s (2 ch) / Italian: DTS, 1509 kb/s (6 ch)
Субтитры: English, Italian

MI

Format : Matroska
Format version : Version 2
File size : 4.51 GiB
Duration : 1h 48mn
Overall bit rate : 5 953 Kbps
Encoded date : UTC 2016-02-21 12:17:08
Writing application : mkvmerge v7.8.0 ('River Man') 32bit built on Apr 3 2015 12:11:22
Writing library : libebml v1.3.1 + libmatroska v1.4.2
Video
ID : 1
Format : AVC
Format/Info : Advanced Video Codec
Format profile : [email protected]
Format settings, CABAC : Yes
Format settings, ReFrames : 5 frames
Codec ID : V_MPEG4/ISO/AVC
Duration : 1h 48mn
Bit rate : 4 253 Kbps
Width : 1 280 pixels
Height : 690 pixels
Display aspect ratio : 1.85:1
Frame rate mode : Constant
Frame rate : 23.976 fps
Color space : YUV
Chroma subsampling : 4:2:0
Bit depth : 8 bits
Scan type : Progressive
Bits/(Pixel*Frame) : 0.201
Stream size : 3.13 GiB (69%)
Writing library : x264 core 148 r2638 7599210
Encoding settings : cabac=1 / ref=5 / deblock=1:3:3 / analyse=0x3:0x133 / me=umh / subme=9 / psy=1 / psy_rd=1.05:0.00 / mixed_ref=1 / me_range=32 / chroma_me=1 / trellis=2 / 8x8dct=1 / cqm=0 / deadzone=21,11 / fast_pskip=0 / chroma_qp_offset=-2 / threads=12 / lookahead_threads=1 / sliced_threads=0 / nr=0 / decimate=0 / interlaced=0 / bluray_compat=0 / constrained_intra=0 / bframes=3 / b_pyramid=2 / b_adapt=2 / b_bias=0 / direct=3 / weightb=1 / open_gop=0 / weightp=2 / keyint=240 / keyint_min=23 / scenecut=40 / intra_refresh=0 / rc_lookahead=40 / rc=2pass / mbtree=0 / bitrate=4253 / ratetol=1.0 / qcomp=0.65 / qpmin=0 / qpmax=69 / qpstep=4 / cplxblur=20.0 / qblur=0.5 / vbv_maxrate=50000 / vbv_bufsize=50000 / nal_hrd=none / filler=0 / ip_ratio=1.40 / pb_ratio=1.30 / aq=3:0.80
Language : Italian
Default : Yes
Forced : No
Audio #1
ID : 2
Format : AC-3
Format/Info : Audio Coding 3
Mode extension : CM (complete main)
Format settings, Endianness : Big
Codec ID : A_AC3
Duration : 1h 48mn
Bit rate mode : Constant
Bit rate : 192 Kbps
Channel(s) : 2 channels
Channel positions : Front: L R
Sampling rate : 48.0 KHz
Bit depth : 16 bits
Compression mode : Lossy
Stream size : 149 MiB (3%)
Language : Russian
Default : Yes
Forced : No
Audio #2
ID : 3
Format : DTS
Format/Info : Digital Theater Systems
Mode : 16
Format settings, Endianness : Big
Codec ID : A_DTS
Duration : 1h 48mn
Bit rate mode : Constant
Bit rate : 1 509 Kbps
Channel(s) : 6 channels
Channel positions : Front: L C R, Side: L R, LFE
Sampling rate : 48.0 KHz
Bit depth : 24 bits
Compression mode : Lossy
Stream size : 1.14 GiB (25%)
Language : Italian
Default : No
Forced : No
Text #1
ID : 4
Format : UTF-8
Codec ID : S_TEXT/UTF8
Codec ID/Info : UTF-8 Plain Text
Language : English
Default : No
Forced : No
Text #2
ID : 5
Format : UTF-8
Codec ID : S_TEXT/UTF8
Codec ID/Info : UTF-8 Plain Text
Language : Italian
Default : No
Forced : No
Menu
00:00:00.000 : en:00:00:00.000
00:07:03.381 : en:00:07:03.381
00:16:15.183 : en:00:16:15.183
00:19:10.691 : en:00:19:10.691
00:25:22.187 : en:00:25:22.187
00:31:48.615 : en:00:31:48.615
00:35:42.349 : en:00:35:42.349
00:42:31.132 : en:00:42:31.132
00:48:44.630 : en:00:48:44.630
00:52:14.757 : en:00:52:14.757
00:57:48.965 : en:00:57:48.965
01:08:47.248 : en:01:08:47.248
01:19:35.646 : en:01:19:35.646
01:26:00.030 : en:01:26:00.030
01:31:50.171 : en:01:31:50.171
01:36:57.228 : en:01:36:57.228

[Цитировать]



Показать сообщения:    

Текущее время: 06-Дек 05:56

Часовой пояс: UTC + 3


Вы не можете начинать темы
Вы не можете отвечать на сообщения
Вы не можете редактировать свои сообщения
Вы не можете удалять свои сообщения
Вы не можете голосовать в опросах
Вы не можете прикреплять файлы к сообщениям
Вы не можете скачивать файлы

!ВНИМАНИЕ!
Сайт не предоставляет электронные версии произведений, а занимается лишь коллекционированием и каталогизацией ссылок, присылаемых и публикуемых на форуме нашими читателями. Если вы являетесь правообладателем какого-либо представленного материала и не желаете, чтобы ссылка на него находилась в нашем каталоге, свяжитесь с нами, и мы незамедлительно удалим ее. Файлы для обмена на трекере предоставлены пользователями сайта, и администрация не несет ответственности за их содержание. Просьба не заливать файлы, защищенные авторскими правами, а также файлы нелегального содержания!