[ Сегодня идет свободное скачивание без начисления Download ]


Статистика раздачи
Скачал: [ 3 ]
 
   
 
Top  
 
 
Сергей Конюхов | Практическая аналитика в Excel (2015) PCRec - Автор (режиссер): Сергей Конюхов
Жанр: Практическая аналитика, Excel
Описание:
Освойте мощные технологии анализа всего за 11 уроков.
Продолжительность: ~4 часа
Качество видео: PCRec
Видео: AVC/H.264, 1280х720/1440x1080, ~634 Kbps, 25-30 fps
Аудио: AAC-LC, 44.1-48.0 KHz, 2 ch, 128-192 Kbps

Какие вопросы рассматриваются в курсе?

Вводный урок – В водном уроке мы рассматриваем такие темы как: нужна ли аналитика не аналитикам по специальности? Нужно ли сегодня умение работать с данными? Какие основные умения в работе с данными необходимы квалифицированному специалисту? Что в итоге может принести наш курс.
Второй урок — во втором уроке мы рассматриваем основные моменты работы с большими массивами данных. Как их обработать при помощи сводной таблицы. Как в сводной таблице произвести расчеты. Как построить диаграмму на основе большого массива данных.
Третий урок – получилась объемная таблица. Что с этим делать? Всматриваться в таблицу пытаясь найти закономерности? Есть инструмент, который позволяет существенно облегчить визуальное восприятие таблиц. Научимся использовать цветовые шкалы для облегчения восприятия, научимся выделять нужные нам цифры.
Четвертый и пятый уроки – Прогнозирование. Хотите знать, как будут развивать ваши продажи? Вам нужно сделать план на следующий месяц, квартал, год? Без прогнозирования вам не обойтись. Мы научимся использовать два самых эффективных способа прогнозирования показателей. После этих уроков вы всегда сможете сделать прогноз.
Шестой урок – Статистический ликбез. Но вы уверены, что посчитав среднее и делая заключение на основании этого, вы не совершаете ошибки? Знание элементарных статистических показателей помогут вам понять данные лучше и не сделать опрометчивых и убыточных выводов.
Седьмой урок – классификация. Человек свойственно все классифицировать. Классифицируется все – новая информация, отношения с людьми, даже семейные отношения. Часто мы это делаем осознанно, часто неосознанно. Но когда разговор доходит до классификации данных ресурса, по крайней мере осознанного ресурса, нашего мозга не хватает. Тут надо применять некие техники. В седьмом уроке мы и научимся осознанно классифицировать большие массивы данных.
Восьмой и девятый уроки – анализируем продажи. Как понять какие товары у вас являются драйверами, а какие тянут ваше предприятие вниз? Как определить какие товары имеет смысл сократить, а на какие обратить особое внимание? Для этого необходим анализ товарооборота. Мы изучим как просто и легко сделать классификацию товаров, позволяющую проанализировать товарооборот.
Десятый урок – изучаем взаимовлияние показателей. Как узнать как ряд одних показателей влияют на интересующий нас показатель? Как определить степень этого влияния? Если влияющий показатель один или максимум два, то еще можно определить это влияние на глазок. Но если показателей больше, то «на глазок» уже не будет работать. Мы изучим инструмент, который позволяет это делать.
Одиннадцатый урок – кто самые лучшие клиенты? Как определить кто из клиентов нуждается в особом внимании? Мы изучим инструмент анализа клиентов, который позволит вам легко выбирать группу самых важных клиентов, не обращая внимания на то сколько всего у вас клиентов – 100, 200, 1000, 100 000 или миллион.

Mediainfo:

Общее
Полное имя : I:\Сергей Конюхов. Практическая аналитика в Excel (2015)\1.MP4
Формат : MPEG-4
Профиль формата : Base Media / Version 2
Идентификатор кодека : mp42
Размер файла : 51,7 Мбайт
Продолжительность : 16 м.
Режим общего битрейта : Переменный
Общий поток : 450 Кбит/сек
Дата кодирования : UTC 2014-07-16 09:44:36
Дата пометки : UTC 2014-07-16 09:44:36
gsst : 0
gstd : 962815
gssd : BADC292C1HM1436455320754174
gshh : r1---sn-n8v7znez.googlevideo.com
Видео
Идентификатор : 1
Формат : AVC
Формат/Информация : Advanced Video Codec
Профиль формата : High@L3.1
Параметр CABAC формата : Да
Параметр ReFrames формата : 1 кадр
Идентификатор кодека : avc1
Идентификатор кодека/Информация : Advanced Video Coding
Продолжительность : 16 м.
Битрейт : 256 Кбит/сек
Максимальный битрейт : 8509 Кбит/сек
Ширина : 1280 пикселей
Высота : 720 пикселей
Соотношение сторон : 16:9
Режим частоты кадров : Постоянный
Частота кадров : 29,970 кадров/сек
Цветовое пространство : YUV
Субдискретизация насыщенности : 4:2:0
Битовая глубина : 8 бит
Тип развёртки : Прогрессивная
Бит/(Пиксели*Кадры) : 0.009
Размер потока : 29,3 Мбайт (57%)
Дата пометки : UTC 2014-07-16 09:44:44
Аудио
Идентификатор : 2
Формат : AAC
Формат/Информация : Advanced Audio Codec
Профиль формата : LC
Идентификатор кодека : 40
Продолжительность : 16 м.
Вид битрейта : Переменный
Битрейт : 192 Кбит/сек
Максимальный битрейт : 201 Кбит/сек
Каналы : 2 канала
Расположение каналов : Front: L R
Частота : 44,1 КГц
Метод сжатия : С потерями
Размер потока : 22,0 Мбайт (43%)
Заголовок : IsoMedia File Produced by Google, 5-11-2011
Дата кодирования : UTC 2014-07-16 09:44:41
Дата пометки : UTC 2014-07-16 09:44:44
Общее
Полное имя : I:\Сергей Конюхов. Практическая аналитика в Excel (2015)\4.mp4
Формат : MPEG-4
Профиль формата : Base Media
Идентификатор кодека : isom
Размер файла : 53,3 Мбайт
Продолжительность : 13 м.
Общий поток : 545 Кбит/сек
Программа кодирования : Lavf56.4.101
Видео
Идентификатор : 1
Формат : AVC
Формат/Информация : Advanced Video Codec
Профиль формата : High@L4
Параметр CABAC формата : Да
Параметр ReFrames формата : 4 кадра
Идентификатор кодека : avc1
Идентификатор кодека/Информация : Advanced Video Coding
Продолжительность : 13 м.
Битрейт : 410 Кбит/сек
Ширина : 1440 пикселей
Высота : 1080 пикселей
Соотношение сторон : 16:9
Режим частоты кадров : Постоянный
Частота кадров : 25,000 кадров/сек
Цветовое пространство : YUV
Субдискретизация насыщенности : 4:2:0
Битовая глубина : 8 бит
Тип развёртки : MBAFF
Порядок развёртки : Верхнее поле первое
Бит/(Пиксели*Кадры) : 0.011
Размер потока : 40,2 Мбайт (75%)
Библиотека кодирования : x264 core 142 r2495 6a301b6
Настройки программы : cabac=1 / ref=3 / deblock=1:0:0 / analyse=0x3:0x113 / me=hex / subme=7 / psy=1 / psy_rd=1,00:0,00 / mixed_ref=1 / me_range=16 / chroma_me=1 / trellis=1 / 8x8dct=1 / cqm=0 / deadzone=21,11 / fast_pskip=1 / chroma_qp_offset=-2 / threads=1 / lookahead_threads=1 / sliced_threads=0 / nr=0 / decimate=1 / interlaced=tff / bluray_compat=0 / constrained_intra=0 / bframes=3 / b_pyramid=2 / b_adapt=1 / b_bias=0 / direct=1 / weightb=1 / open_gop=0 / weightp=0 / keyint=120 / keyint_min=12 / scenecut=40 / intra_refresh=0 / rc_lookahead=40 / rc=crf / mbtree=1 / crf=20,0 / qcomp=0,60 / qpmin=0 / qpmax=69 / qpstep=4 / ip_ratio=1,40 / aq=1:1,00
Цветовой диапазон : Limited
Характеристики трансфера : BT.709
Коэффициенты матрицы : BT.709
Аудио
Идентификатор : 2
Формат : AAC
Формат/Информация : Advanced Audio Codec
Профиль формата : LC
Идентификатор кодека : 40
Продолжительность : 13 м.
Вид битрейта : Постоянный
Битрейт : 128 Кбит/сек
Каналы : 2 канала
Расположение каналов : Front: L R
Частота : 48,0 КГц
Метод сжатия : С потерями
Размер потока : 12,6 Мбайт (24%)
Скриншоты:

[Цитировать]



Показать сообщения:    

Текущее время: 07-Дек 21:25

Часовой пояс: UTC + 3


Вы не можете начинать темы
Вы не можете отвечать на сообщения
Вы не можете редактировать свои сообщения
Вы не можете удалять свои сообщения
Вы не можете голосовать в опросах
Вы не можете прикреплять файлы к сообщениям
Вы не можете скачивать файлы

!ВНИМАНИЕ!
Сайт не предоставляет электронные версии произведений, а занимается лишь коллекционированием и каталогизацией ссылок, присылаемых и публикуемых на форуме нашими читателями. Если вы являетесь правообладателем какого-либо представленного материала и не желаете, чтобы ссылка на него находилась в нашем каталоге, свяжитесь с нами, и мы незамедлительно удалим ее. Файлы для обмена на трекере предоставлены пользователями сайта, и администрация не несет ответственности за их содержание. Просьба не заливать файлы, защищенные авторскими правами, а также файлы нелегального содержания!