[ Сегодня идет свободное скачивание без начисления Download ]


Статистика раздачи
Нет
 
   
 
Top  
 
 
- Зачётный препод 2 / Fack ju Göhte 2Производство: Германия, Constantin Film International, Constantin Film Produktion GmbH, Red Balloon Films
Жанр: Комедия
Режиссер: Бора Дагтекин
Актеры: Элиас ЭмБарек, Йелла Хаазе, Каролина Херфурт, Катя Риман, Макс фон Гробен, Гизем Эмре, Арам Арами, Анна-Лена Кленке, Лукас Райбер, Руна Грайнер
Описание:
Бывший грабитель, а ныне крутой препод в школе Гёте, Зеки Мюллер, обрел популярность среди учеников благодаря нетрадиционным методам преподавания. Не успел он заскучать, заполняя классные журналы и проверяя тетради, как его вовлекли в «войну школ»: для того, чтобы получить статус престижного учебного заведения, необходимо съездить с коррекционным классом старшеклассников в Таиланд, чтобы установить дружеские отношения с местной школой.
Вы, наверное, догадались, кому «повезло» стать сопровождающим! Пару Зеки составит очаровательная коллега Лиси. Кто кому задаст жару в этой по-настоящему «горячей» поездке, полной соблазнов — большой вопрос…

Дата мировой премьеры: 10.09.2015
Дата премьеры в России: 28.01.2016
Продолжительность: 01:50:47
Качество видео: WEBRip
Перевод: Профессиональный (полное дублированние) звук с CAMRip
Видео: Xvid, 704x288, ~1629 Kbps
Аудио: AC3, 2 ch, 128 Kbps, CBR

Mediainfo:

Общее
Полное имя                               : E:\22222\Зачётный.препод.2.2015.WEBRip.avi
Формат                                   : AVI
Формат/Информация                        : Audio Video Interleave
Размер файла                             : 1,37 Гбайт
Продолжительность                        : 1 ч. 24 м.
Общий поток                              : 2314 Кбит/сек
Программа кодирования                    : VirtualDubMod 1.5.10.2 (build 2540/release)
Библиотека кодирования                   : VirtualDub build 32507/release
Видео
Идентификатор                            : 0
Формат                                   : MPEG-4 Visual
Профиль формата                          : Advanced [email protected]
Параметр BVOP формата                    : 2
Параметр QPel формата                    : Нет
Параметр GMC формата                     : Без точки перехода
Параметр матрицы формата                 : Default (MPEG)
Идентификатор кодека                     : XVID
Идентификатор кодека/Подсказка           : XviD
Продолжительность                        : 1 ч. 24 м.
Битрейт                                  : 1629 Кбит/сек
Ширина                                   : 704 пикселей
Высота                                   : 288 пикселя
Соотношение сторон                       : 2,35:1
Частота кадров                           : 25,000 кадров/сек
Цветовое пространство                    : YUV
Субдискретизация насыщенности            : 4:2:0
Битовая глубина                          : 8 бит
Тип развёртки                            : Прогрессивная
Метод сжатия                             : С потерями
Бит/(Пиксели*Кадры)                      : 0.351
Размер потока                            : 1,13 Гбайт (83%)
Библиотека кодирования                   : XviD 1.2.1 (UTC 2008-12-04)
Аудио
Идентификатор                            : 1
Формат                                   : AC-3
Формат/Информация                        : Audio Coding 3
Расширение режима                        : CM (complete main)
Параметр Endianness формата              : Big
Идентификатор кодека                     : 2000
Продолжительность                        : 1 ч. 24 м.
Вид битрейта                             : Постоянный
Битрейт                                  : 128 Кбит/сек
Каналы                                   : 2 канала
Расположение каналов                     : Front: L R
Частота                                  : 48,0 КГц
Метод сжатия                             : С потерями
Размер потока                            : 232 Мбайт (17%)
Выравнивание                             : Разделение по промежуткам
Продолжительность промежутка             : 40  мс. (1,00 видеокадр)
Время предзагрузки промежутка            : 500  мс.

Скриншоты

[Цитировать]



Показать сообщения:    

Текущее время: 04-Дек 19:21

Часовой пояс: UTC + 3


Вы не можете начинать темы
Вы не можете отвечать на сообщения
Вы не можете редактировать свои сообщения
Вы не можете удалять свои сообщения
Вы не можете голосовать в опросах
Вы не можете прикреплять файлы к сообщениям
Вы не можете скачивать файлы

!ВНИМАНИЕ!
Сайт не предоставляет электронные версии произведений, а занимается лишь коллекционированием и каталогизацией ссылок, присылаемых и публикуемых на форуме нашими читателями. Если вы являетесь правообладателем какого-либо представленного материала и не желаете, чтобы ссылка на него находилась в нашем каталоге, свяжитесь с нами, и мы незамедлительно удалим ее. Файлы для обмена на трекере предоставлены пользователями сайта, и администрация не несет ответственности за их содержание. Просьба не заливать файлы, защищенные авторскими правами, а также файлы нелегального содержания!