[ Сегодня идет свободное скачивание без начисления Download ]


Статистика раздачи
Скачал: [ 1 ]
 
   
 
Top  
 
 
Большой куш / Snatch. (2000) BDRip-AVC | 60 fps Название: Большой куш
Оригинальное название: Snatch.
Год выпуска: 2000
Страна: Великобритания, США
Жанр: криминал, комедия
Продолжительность: 01:42:46
Перевод: Dub, MVO, DVO, AVO, Original
Субтитры: русские (Полные), украинские (Полные), английские (Полные)
Режиссер: Гай Ричи
В ролях: Джейсон Стэйтем (Turkish), Брэд Питт (Mickey O'Neil), Бенисио Дель Торо (Franky Four Fingers), Стивен Грэм (Tommy), Алан Форд (Brick Top), Деннис Фарина (Cousin Avi), Раде Шербеджия (Boris the Blade), Винни Джонс (Bullet-Tooth Tony), Джейсон Флеминг (Darren), Майк Рейд (Doug the Head), Робби Ги (Vinny), Ленни Джеймс (Sol)
Описание:
Четырехпалый Френки должен был переправить краденый алмаз из Англии в США своему боссу Эви. Но вместо этого герой попадает в эпицентр больших неприятностей. Сделав ставку на подпольном боксерском поединке, Френки попадает в круговорот весьма нежелательных событий.
Вокруг героя и его груза разворачивается сложная интрига с участием множества колоритных персонажей лондонского дна - русского гангстера, троих незадачливых грабителей, хитрого боксера и угрюмого громилы грозного мафиози. Каждый норовит в одиночку сорвать Большой Куш.
Рейтинг:

MPAA: R - Лицам до 17 лет обязательно присутствие взрослого
Качество: BDRip-AVC 60fps
Формат: MKV
Видео: AVC, 1024x552 (1.855), 3523 kbps, 59,940 fps, 0,104 bpp
Аудио №1: русский / AC3 / 5.1 / 48 kHz / 640 kbps / 16 bit |ст. Позитив-Мультимедиа BD EUR|
Аудио №2: русский / AC3 / 5.1 / 48 kHz / 448 kbps / 16 bit |ст. Позитив-Мультимедиа 2010|
Аудио №3: русский / AC3 / 5.1 / 48 kHz / 448 kbps / 16 bit |ст. Нота|
Аудио №4: русский / AC3 / 5.1 / 48 kHz / 640 kbps / 16 bit |П. Гланц и И. Королёва|
Аудио №5: русский / AC3 / 5.1 / 48 kHz / 640 kbps / 16 bit |Ю. Сербин|
Аудио №6: русский / AC3 / 5.1 / 48 kHz / 640 kbps / 16 bit |Д. Пучков aka Гоблин, 2004|
Аудио №7: русский / AC3 / 5.1 / 48 kHz / 640 kbps / 16 bit |А. Гаврилов|
Аудио №8: русский / AC3 / 5.1 / 48 kHz / 640 kbps / 16 bit |Ю. Живов|
Аудио №9: английский / AC3 / 5.1 / 48 kHz / 640 kbps / 16 bit
Навигация по главам: есть

ОтчетМедиаИнфо

General
Unique ID : 239740988195001310962338944836424280259 (0xB45C6F4F75195C6B82C68178620DA8C3)
Format : Matroska
Format version : Version 4 / Version 2
File size : 6.52 GiB
Duration : 1h 42mn
Overall bit rate : 9 080 Kbps
Movie name : Tiberiumsun69
Encoded date : UTC 2016-02-23 09:57:14
Writing application : mkvmerge v8.3.0 ('Over the Horizon') 64bit
Writing library : libebml v1.3.1 + libmatroska v1.4.2
Cover : Yes
Attachments : Cover.png
Video
ID : 1
Format : AVC
Format/Info : Advanced Video Codec
Format profile : [email protected]
Format settings, CABAC : Yes
Format settings, ReFrames : 4 frames
Codec ID : V_MPEG4/ISO/AVC
Duration : 1h 42mn
Bit rate : 3 524 Kbps
Nominal bit rate : 3 700 Kbps
Width : 1 024 pixels
Height : 552 pixels
Display aspect ratio : 1.85:1
Frame rate mode : Constant
Frame rate : 59.940 (59940/1000) fps
Color space : YUV
Chroma subsampling : 4:2:0
Bit depth : 8 bits
Scan type : Progressive
Bits/(Pixel*Frame) : 0.104
Stream size : 2.53 GiB (39%)
Title : Tiberiumsun69
Writing library : x264 core 146 r2538 121396c
Encoding settings : cabac=1 / ref=3 / deblock=1:0:0 / analyse=0x3:0x113 / me=umh / subme=11 / psy=1 / psy_rd=1.00:0.10 / mixed_ref=1 / me_range=32 / chroma_me=1 / trellis=2 / 8x8dct=1 / cqm=0 / deadzone=21,11 / fast_pskip=0 / chroma_qp_offset=-3 / threads=12 / lookahead_threads=3 / sliced_threads=0 / nr=0 / decimate=1 / interlaced=0 / bluray_compat=0 / constrained_intra=0 / bframes=16 / b_pyramid=2 / b_adapt=2 / b_bias=0 / direct=3 / weightb=1 / open_gop=0 / weightp=2 / keyint=250 / keyint_min=25 / scenecut=40 / intra_refresh=0 / rc_lookahead=40 / rc=2pass / mbtree=1 / bitrate=3700 / ratetol=1.0 / qcomp=0.60 / qpmin=0 / qpmax=69 / qpstep=4 / cplxblur=20.0 / qblur=0.5 / vbv_maxrate=14000 / vbv_bufsize=14000 / nal_hrd=none / filler=0 / ip_ratio=1.40 / aq=1:1.00
Language : English
Default : Yes
Forced : No
Audio #1
ID : 2
Format : AC-3
Format/Info : Audio Coding 3
Mode extension : CM (complete main)
Format settings, Endianness : Big
Codec ID : A_AC3
Duration : 1h 42mn
Bit rate mode : Constant
Bit rate : 640 Kbps
Channel(s) : 6 channels
Channel positions : Front: L C R, Side: L R, LFE
Sampling rate : 48.0 KHz
Frame rate : 31.250 fps (1536 spf)
Compression mode : Lossy
Stream size : 470 MiB (7%)
Title : MVO Позитив-Мультимедиа BD EUR
Language : Russian
Default : Yes
Forced : No
Audio #2
ID : 3
Format : AC-3
Format/Info : Audio Coding 3
Mode extension : CM (complete main)
Format settings, Endianness : Big
Codec ID : A_AC3
Duration : 1h 42mn
Bit rate mode : Constant
Bit rate : 448 Kbps
Channel(s) : 6 channels
Channel positions : Front: L C R, Side: L R, LFE
Sampling rate : 48.0 KHz
Frame rate : 31.250 fps (1536 spf)
Compression mode : Lossy
Stream size : 329 MiB (5%)
Title : MVO Позитив-Мультимедиа 2010
Language : Russian
Default : No
Forced : No
Audio #3
ID : 4
Format : AC-3
Format/Info : Audio Coding 3
Mode extension : CM (complete main)
Format settings, Endianness : Big
Codec ID : A_AC3
Duration : 1h 42mn
Bit rate mode : Constant
Bit rate : 448 Kbps
Channel(s) : 6 channels
Channel positions : Front: L C R, Side: L R, LFE
Sampling rate : 48.0 KHz
Frame rate : 31.250 fps (1536 spf)
Compression mode : Lossy
Stream size : 329 MiB (5%)
Title : MVO ст. Нота
Language : Russian
Default : No
Forced : No
Audio #4
ID : 5
Format : AC-3
Format/Info : Audio Coding 3
Mode extension : CM (complete main)
Format settings, Endianness : Big
Codec ID : A_AC3
Duration : 1h 42mn
Bit rate mode : Constant
Bit rate : 640 Kbps
Channel(s) : 6 channels
Channel positions : Front: L C R, Side: L R, LFE
Sampling rate : 48.0 KHz
Frame rate : 31.250 fps (1536 spf)
Compression mode : Lossy
Stream size : 470 MiB (7%)
Title : DVO П. Гланц и И. Королёва
Language : Russian
Default : No
Forced : No
Audio #5
ID : 6
Format : AC-3
Format/Info : Audio Coding 3
Mode extension : CM (complete main)
Format settings, Endianness : Big
Codec ID : A_AC3
Duration : 1h 42mn
Bit rate mode : Constant
Bit rate : 640 Kbps
Channel(s) : 6 channels
Channel positions : Front: L C R, Side: L R, LFE
Sampling rate : 48.0 KHz
Frame rate : 31.250 fps (1536 spf)
Compression mode : Lossy
Stream size : 470 MiB (7%)
Title : AVO Ю. Сербин
Language : Russian
Default : No
Forced : No
Audio #6
ID : 7
Format : AC-3
Format/Info : Audio Coding 3
Mode extension : CM (complete main)
Format settings, Endianness : Big
Codec ID : A_AC3
Duration : 1h 42mn
Bit rate mode : Constant
Bit rate : 640 Kbps
Channel(s) : 6 channels
Channel positions : Front: L C R, Side: L R, LFE
Sampling rate : 48.0 KHz
Frame rate : 31.250 fps (1536 spf)
Compression mode : Lossy
Stream size : 470 MiB (7%)
Title : AVO Д. Пучков aka Гоблин, 2004
Language : Russian
Default : No
Forced : No
Audio #7
ID : 8
Format : AC-3
Format/Info : Audio Coding 3
Mode extension : CM (complete main)
Format settings, Endianness : Big
Codec ID : A_AC3
Duration : 1h 42mn
Bit rate mode : Constant
Bit rate : 640 Kbps
Channel(s) : 6 channels
Channel positions : Front: L C R, Side: L R, LFE
Sampling rate : 48.0 KHz
Frame rate : 31.250 fps (1536 spf)
Compression mode : Lossy
Stream size : 470 MiB (7%)
Title : AVO А. Гаврилов
Language : Russian
Default : No
Forced : No
Audio #8
ID : 9
Format : AC-3
Format/Info : Audio Coding 3
Mode extension : CM (complete main)
Format settings, Endianness : Big
Codec ID : A_AC3
Duration : 1h 42mn
Bit rate mode : Constant
Bit rate : 640 Kbps
Channel(s) : 6 channels
Channel positions : Front: L C R, Side: L R, LFE
Sampling rate : 48.0 KHz
Frame rate : 31.250 fps (1536 spf)
Compression mode : Lossy
Stream size : 470 MiB (7%)
Title : AVO Ю. Живов
Language : Russian
Default : No
Forced : No
Audio #9
ID : 10
Format : AC-3
Format/Info : Audio Coding 3
Mode extension : CM (complete main)
Format settings, Endianness : Big
Codec ID : A_AC3
Duration : 1h 42mn
Bit rate mode : Constant
Bit rate : 640 Kbps
Channel(s) : 6 channels
Channel positions : Front: L C R, Side: L R, LFE
Sampling rate : 48.0 KHz
Frame rate : 31.250 fps (1536 spf)
Compression mode : Lossy
Stream size : 470 MiB (7%)
Title : Original
Language : English
Default : No
Forced : No
Text #1
ID : 11
Format : UTF-8
Codec ID : S_TEXT/UTF8
Codec ID/Info : UTF-8 Plain Text
Title : Полные
Language : Russian
Default : No
Forced : No
Text #2
ID : 12
Format : UTF-8
Codec ID : S_TEXT/UTF8
Codec ID/Info : UTF-8 Plain Text
Title : Полные
Language : Ukrainian
Default : No
Forced : No
Text #3
ID : 13
Format : UTF-8
Codec ID : S_TEXT/UTF8
Codec ID/Info : UTF-8 Plain Text
Title : Полные
Language : English
Default : No
Forced : No
Menu
00:00:00.000 : en:Start
00:03:56.778 : en:Diamond Snatch
00:06:57.334 : en:Turkish and Tommy
00:09:28.526 : en:Brick Top
00:11:52.545 : en:Boris & His Brother
00:12:51.104 : en:Avi
00:13:48.119 : en:Dough the Head
00:16:30.740 : en:Buying a Caravan
00:20:20.010 : en:Gypsy Bare-Knuckle Champ
00:22:46.907 : en:Sol
00:25:17.099 : en:Tyrone and His Getaway Car
00:30:02.217 : en:Replacement Fighter
00:30:56.354 : en:A Dive in the Fourth
00:36:26.935 : en:All Bets Are Off
00:39:39.002 : en:One-Punch Mickey
00:41:38.413 : en:A Problem
00:48:37.915 : en:Mickey's Offer
00:53:12.606 : en:Not a Bad Moment?
00:59:05.292 : en:Bullet-Tooth Tony
01:02:57.315 : en:Brick Top's Persuasion
01:07:46.104 : en:A Hard Man to Track Down
01:09:13.149 : en:All Roads Lead to Boris
01:13:23.524 : en:Desert Eagle vs. Replica
01:16:11.025 : en:Russian Standoff
01:19:08.535 : en:Predictability of Stupidity
01:22:21.687 : en:"Look in the Dog."
01:28:11.578 : en:"Do Not Knock Him Out."
01:33:57.382 : en:Action & Reaction
Авторство группы

[Цитировать]



Показать сообщения:    

Текущее время: 04-Дек 06:57

Часовой пояс: UTC + 3


Вы не можете начинать темы
Вы не можете отвечать на сообщения
Вы не можете редактировать свои сообщения
Вы не можете удалять свои сообщения
Вы не можете голосовать в опросах
Вы не можете прикреплять файлы к сообщениям
Вы не можете скачивать файлы

!ВНИМАНИЕ!
Сайт не предоставляет электронные версии произведений, а занимается лишь коллекционированием и каталогизацией ссылок, присылаемых и публикуемых на форуме нашими читателями. Если вы являетесь правообладателем какого-либо представленного материала и не желаете, чтобы ссылка на него находилась в нашем каталоге, свяжитесь с нами, и мы незамедлительно удалим ее. Файлы для обмена на трекере предоставлены пользователями сайта, и администрация не несет ответственности за их содержание. Просьба не заливать файлы, защищенные авторскими правами, а также файлы нелегального содержания!