[ Сегодня идет свободное скачивание без начисления Download ]


Статистика раздачи
Нет
 
   
 
Top  
 
 
Сумеречные охотники / Shadowhunters - Год выпуска: 2016
Страна: США
Жанр: Фэнтези, боевик, драма
Продолжительность: 00:40:00- Перевод: Любительский (многоголосый закадровый) Alternative Production- Режиссёр: Майрзи Алмас, Тауния Маккирнан, Энди Волк, Оз Скотт
В ролях: Кэтрин МакНамара, Доминик Шервуд, Альберто Розенде, Алан Ван Спрэнг, Джон Кор, Кейтлин Вонг, Мими Кузык и др.- Описание:
Невзрачная и ничем не примечательная девушка Клэри Фрэй в свой 18-й день рождения узнает, что она является наследницей древнего семейства Сумеречных Охотников — таинственного клана полулюдей-полуангелов, которые обороняют мир от демонических тварей. После похищения матери девушка вместе со своим другом Саймоном и сумеречным охотником Джейсом пытается ее спасти и… попадает в другую реальность.- - Качество: HDTV 1080p
Формат: MKV
Видео кодек: H.264
Аудио кодек: AC3
Видео: H.264, 1920x1080 (16:9), 5 192 Kbps, 23.976 fps, 0.104 bit/pixel
Аудио 1: AC3 Dolby Digital, 48 kHz, 2 channel, 384 kbps
Аудио 2: AC3 Dolby Digital, 48 kHz, 3/2 (L,C,R,l,r) + LFE ch, 384 kbps
Субтитры: отсутствуют
Релиз

MediaInfo

General
Unique ID : 217669660023639971883802339473095020463 (0xA3C1A6D0B9F3CAD9A3F5EEEA70E64FAF)
Format : Matroska
Format version : Version 4 / Version 2
File size : 1.68 GiB
Duration : 39mn 40s
Overall bit rate : 6 081 Kbps
Movie name : Shadowhunters.S01E01.1080p.WEB-DL.DD5.1.H264-RARBG
Encoded date : UTC 2016-01-14 13:18:08
Writing application : mkvmerge v8.3.0 ('Over the Horizon') 64bit
Writing library : libebml v1.3.1 + libmatroska v1.4.2
Attachements : poster (4).jpg
DURATION : 00:39:40.256000000
NUMBER_OF_FRAMES : 74383
NUMBER_OF_BYTES : 114252288
_STATISTICS_WRITING_APP : mkvmerge v8.3.0 ('Over the Horizon') 64bit
_STATISTICS_WRITING_DATE_UT : 2016-01-14 13:18:08
_STATISTICS_TAGS : BPS DURATION NUMBER_OF_FRAMES NUMBER_OF_BYTES
Video
ID : 1
Format : AVC
Format/Info : Advanced Video Codec
Format profile : High@L4.0
Format settings, CABAC : Yes
Format settings, ReFrames : 4 frames
Codec ID : V_MPEG4/ISO/AVC
Duration : 39mn 40s
Bit rate : 5 192 Kbps
Width : 1 920 pixels
Height : 1 080 pixels
Display aspect ratio : 16:9
Frame rate mode : Constant
Frame rate : 23.976 fps
Color space : YUV
Chroma subsampling : 4:2:0
Bit depth : 8 bits
Scan type : Progressive
Bits/(Pixel*Frame) : 0.104
Stream size : 1.44 GiB (85%)
Language : English
Default : Yes
Forced : No
Color primaries : BT.709
Transfer characteristics : BT.709
Matrix coefficients : BT.709
Color range : Limited
Audio #1
ID : 2
Format : AC-3
Format/Info : Audio Coding 3
Mode extension : CM (complete main)
Format settings, Endianness : Big
Codec ID : A_AC3
Duration : 39mn 40s
Bit rate mode : Constant
Bit rate : 384 Kbps
Channel(s) : 2 channels
Channel positions : Front: L R
Sampling rate : 48.0 KHz
Bit depth : 16 bits
Compression mode : Lossy
Stream size : 109 MiB (6%)
Title : Alt Pro
Language : Russian
Default : Yes
Forced : No
Audio #2
ID : 3
Format : AC-3
Format/Info : Audio Coding 3
Mode extension : CM (complete main)
Format settings, Endianness : Big
Codec ID : A_AC3
Duration : 39mn 40s
Bit rate mode : Constant
Bit rate : 384 Kbps
Channel(s) : 6 channels
Channel positions : Front: L C R, Side: L R, LFE
Sampling rate : 48.0 KHz
Bit depth : 16 bits
Compression mode : Lossy

Скриншоты

Внимание! Раздача ведётся путём добавления новых серий.

Внимание! Раздача ведётся путём добавления новых серий; при каждом добавлении создётся новый торрент. Чтобы начать докачку новой серии, пользователям необходимо сделать следующее:
  • Остановить скачивание.
  • Удалить старый торрент у себя из клиента (старые серии удалять не надо).
  • Скачать новый торрент и запустить его у себя в клиенте вместо старого, при этом указать клиенту путь в старую папку куда и должно происходить скачивание новых серий.
    Ваш клиент при этом должен произвести хеширование (проверку) старой папки (если не производит сам - помогите ему сделать это), и будет докачивать только те серии которых у вас ещё нет. Старые серии при этом не удаляются, а продолжают раздаваться!
    Eсли вы уже удалили старые серии, то предотвратить повторную закачку старых серий можно, отжав галочку в соответсвующих местах при запуске нового торрента. По возможности, желательно не удалять старые серии как можно дольше чтобы релизёр не столько продолжал раздавать старые серии, а смог сконцентрироваться на новых.
Мультитрекерная раздача


Последний раз редактировалось: Robocool (2016-03-01 11:17), всего редактировалось 1 раз

[Цитировать]

Добавлена 12 серия.+ 13 серия. Финал сезона.

[Цитировать]



Показать сообщения:    

Текущее время: 10-Дек 07:54

Часовой пояс: UTC + 3


Вы не можете начинать темы
Вы не можете отвечать на сообщения
Вы не можете редактировать свои сообщения
Вы не можете удалять свои сообщения
Вы не можете голосовать в опросах
Вы не можете прикреплять файлы к сообщениям
Вы не можете скачивать файлы

!ВНИМАНИЕ!
Сайт не предоставляет электронные версии произведений, а занимается лишь коллекционированием и каталогизацией ссылок, присылаемых и публикуемых на форуме нашими читателями. Если вы являетесь правообладателем какого-либо представленного материала и не желаете, чтобы ссылка на него находилась в нашем каталоге, свяжитесь с нами, и мы незамедлительно удалим ее. Файлы для обмена на трекере предоставлены пользователями сайта, и администрация не несет ответственности за их содержание. Просьба не заливать файлы, защищенные авторскими правами, а также файлы нелегального содержания!