[ Сегодня идет свободное скачивание без начисления Download ]


Статистика раздачи
Нет
 
   
 
Top  
 
 
Секретные материалыThe X-Files- Год выпуска: 2016
Страна: США
Жанр: Фантастика, триллер, драма, детектив
Продолжительность: ~00:43:00
Перевод: Профессиональный (многоголосый закадровый) Jaskier-Режиссёр: Крис Картер, Дэрин Морган, Глен Морган
В ролях: Дэвид Духовны, Джиллиан Андерсон, Митч Пиледжи, Уильям Б. Дэвис, Робби Амелл, Том Брэйдвуд, Дин Хэглунд, Брюс Харвуд, Джоэл МакХэйл, Лорен Эмброуз-Описание: Самый популярный сериал про внеземные цивилизации и таинственные явления снова выходит на экраны «Секретные материалы: Перезагрузка» 10 сезон. Прошлый сезон данного проекта зрители смогли видеть почти тринадцать лет назад. Сейчас создатели телеканала Fox решили возродить нашумевший сериал. В роли самых лучших сыщиков снова выступают, несравненная агент Дана Скалли роль, которой исполняет Джиллиан Андерсон и обаятельный агент Малдер (Дэвид Духовны). Может быть, главные герои изменились на такой промежуток времени. С самого начала агент Скалли не верила в сверхъестественные силы и пыталась найти достойные объяснения происходящему. А агент Малдер, наоборот, верил во все, ведь еще в детстве он видел, как его младшую сестру похитили пришельцы прямо из их дома.-Доп. информация: Без рекламных ВидеоАудио вставок
Голоса Игоря Тарадайкина и Любовь Германовой (как на ОРТ в 1999-2000 гг.)-Сэмпл-Качество: WEB-DLRip
Формат: AVI
Видео: XviD, 720x400 (16:9), 23,976 fps, ~1500 kbps
Аудио Rus.: MP3, 48 kHz, 2 ch, 128 kbps
Аудио Rus.: MP3, 48 kHz, 2 ch, 128 kbps
Субтитры: русские, вшитые, на надписи

Список серий

01. Моя борьба My Struggle
02. Мутация основателя Founder's Mutation
03. Малдер и Скалли встречают монстра-оборотня (Mulder and Scully Meet the Were-Monster)
04. Снова дома Home Again
05. Вавилон Babylon
06. Моя борьба 2 (My Struggle II)

MediaInfo

Полное имя                               : The.X-Files.S10.WEB-DLRip.RusEng.Jaskier\The.X-Files.S10E01.WEB-DLRip.RusEng.Jaskier.L.avi
Формат                                   : AVI
Формат/Информация                        : Audio Video Interleave
Размер файла                             : 560 Мбайт
Продолжительность                        : 43 м.
Общий поток                              : 1783 Кбит/сек
Программа кодирования                    : VirtualDubMod 1.5.10.3 (build 2550/release)
Библиотека кодирования                   : VirtualDubMod build 2550/release
Видео
Идентификатор                            : 0
Формат                                   : MPEG-4 Visual
Профиль формата                          : Advanced Simple@L5
Параметр BVOP формата                    : 1
Параметр QPel формата                    : Нет
Параметр GMC формата                     : Без точки перехода
Параметр матрицы формата                 : Default (H.263)
Идентификатор кодека                     : XVID
Идентификатор кодека/Подсказка           : XviD
Продолжительность                        : 43 м.
Битрейт                                  : 1513 Кбит/сек
Ширина                                   : 720 пикселей
Высота                                   : 400 пикселей
Соотношение сторон                       : 16:9
Частота кадров                           : 23,976 кадра/сек
Цветовое пространство                    : YUV
Субдискретизация насыщенности            : 4:2:0
Битовая глубина                          : 8 бит
Тип развёртки                            : Прогрессивная
Метод сжатия                             : С потерями
Бит/(Пиксели*Кадры)                      : 0.219
Размер потока                            : 476 Мбайт (85%)
Библиотека кодирования                   : XviD 73
Аудио #1
Идентификатор                            : 1
Формат                                   : MPEG Audio
Версия формата                           : Version 1
Профиль формата                          : Layer 3
Режим                                    : Joint stereo
Расширение режима                        : MS Stereo
Идентификатор кодека                     : 55
Идентификатор кодека/Подсказка           : MP3
Продолжительность                        : 43 м.
Вид битрейта                             : Постоянный
Битрейт                                  : 128 Кбит/сек
Каналы                                   : 2 канала
Частота                                  : 48,0 КГц
Метод сжатия                             : С потерями
Размер потока                            : 40,2 Мбайт (7%)
Выравнивание                             : Соединение по промежуткам
Продолжительность промежутка             : 42  мс. (1,00 видеокадр)
Время предзагрузки промежутка            : 504  мс.
Аудио #2
Идентификатор                            : 2
Формат                                   : MPEG Audio
Версия формата                           : Version 1
Профиль формата                          : Layer 3
Режим                                    : Joint stereo
Расширение режима                        : MS Stereo
Идентификатор кодека                     : 55
Идентификатор кодека/Подсказка           : MP3
Продолжительность                        : 43 м.
Вид битрейта                             : Постоянный
Битрейт                                  : 128 Кбит/сек
Каналы                                   : 2 канала
Частота                                  : 48,0 КГц
Метод сжатия                             : С потерями
Размер потока                            : 40,2 Мбайт (7%)
Выравнивание                             : Соединение по промежуткам
Продолжительность промежутка             : 42  мс. (1,00 видеокадр)
Время предзагрузки промежутка            : 504  мс.

Скриншоты



Последний раз редактировалось: Robocool (2016-02-29 21:57), всего редактировалось 1 раз

[Цитировать]



Показать сообщения:    

Текущее время: 10-Дек 00:20

Часовой пояс: UTC + 3


Вы не можете начинать темы
Вы не можете отвечать на сообщения
Вы не можете редактировать свои сообщения
Вы не можете удалять свои сообщения
Вы не можете голосовать в опросах
Вы не можете прикреплять файлы к сообщениям
Вы не можете скачивать файлы

!ВНИМАНИЕ!
Сайт не предоставляет электронные версии произведений, а занимается лишь коллекционированием и каталогизацией ссылок, присылаемых и публикуемых на форуме нашими читателями. Если вы являетесь правообладателем какого-либо представленного материала и не желаете, чтобы ссылка на него находилась в нашем каталоге, свяжитесь с нами, и мы незамедлительно удалим ее. Файлы для обмена на трекере предоставлены пользователями сайта, и администрация не несет ответственности за их содержание. Просьба не заливать файлы, защищенные авторскими правами, а также файлы нелегального содержания!