[ Сегодня идет свободное скачивание без начисления Download ]


Статистика раздачи
Скачал: [ 2 ]
 
   
 
Top  
 
 
Последний охотник на ведьм / The Last Witch Hunter (2015) BDRip 720p | 60 fps Информация о фильме
Русское название: Последний охотник на ведьм
Оригинальное название: The Last Witch Hunter
Год выхода: 2015
Жанр: фэнтези, боевик, приключения
Режиссер: Брек Эйснер
Выпущено: США, Китай, Канада
Продолжительность: 01:46:34
Перевод: Дублированный
В ролях: Вин Дизель, Роуз Лесли, Элайджа Вуд, Оулавюр Дарри Оулафссон, Рина Оуэн, Юли Энгельбрехт, Майкл Кейн, Джозеф Гилган, Исаак Де Банколе, Майкл Халсли, Слоун Кумбс, Лотте Вербеек, Доун Оливери, Инбар Лави, Армани Джексон, Эйми Карреро, Бекс Тейлор-Клаус, Дэвид Уэйлен, Джэк Эрди, Туссэн Рафаэль Абессоло
Сюжет фильма
Современный мир скрывает множество секретов, но самым удивительным из них является то, что ведьмы до сих пор живут среди нас. Это злобные сверхъестественные существа, чья цель — наслать на мир смертоносную чуму. Армии охотников на ведьм сражались с ними на протяжении многих веков. В наши дни остался всего лишь один охотник на ведьм, Колдер, которому однажды удалось убить всемогущую королеву ведьм. Но Колдер еще не знает, что королева воскресла и жаждет отомстить своему убийце…
Файл
Качество: BDRip 720p (исходник Blu-ray Disc)
Контейнер: MKV (расширение файла)
Видео: 1280x534, 5245 Кбит/сек, 59.940 кадр/сек, AVC, x264, [email protected], 2.40:1, 0.128 Бит/[Пиксели*Кадры]
Аудио 1: AC-3, 640 Кбит/сек, 6 канала(ов), 48,0 КГц - Дублированный / Русский
Аудио 2: AC-3, 640 Кбит/сек, 6 канала(ов), 48,0 КГц - Оригинал / Английский
Субтитры: Русские | Полные, Английские | Полные
Форсированные субтитры: Нет
Чаптеры (Главы): Есть

Автор Рипа:

MediaInfo

Format : Matroska
Format version : Version 2
File size : 4.96 GiB
Duration : 1h 46mn
Overall bit rate : 6 657 Kbps
Movie name : Последний охотник на ведьм.(2015).BDRip.720p.[envy].[60fps]
Encoded date : UTC 2016-02-25 14:53:02
Writing application : mkvmerge v5.8.0 ('No Sleep / Pillow') built on Sep 2 2012 15:37:04
Writing library : libebml v1.2.3 + libmatroska v1.3.0
Video
ID : 1
Format : AVC
Format/Info : Advanced Video Codec
Format profile : [email protected]
Format settings, CABAC : Yes
Format settings, ReFrames : 9 frames
Codec ID : V_MPEG4/ISO/AVC
Duration : 1h 46mn
Bit rate : 5 245 Kbps
Width : 1 280 pixels
Height : 534 pixels
Display aspect ratio : 2.40:1
Frame rate mode : Constant
Frame rate : 59.880 fps
Original frame rate : 59.940 fps
Color space : YUV
Chroma subsampling : 4:2:0
Bit depth : 8 bits
Scan type : Progressive
Bits/(Pixel*Frame) : 0.128
Stream size : 3.90 GiB (79%)
Title : Последний охотник на ведьм.(2015).BDRip.720p.[envy].[60fps]
Writing library : x264 core 146 r2538 121396c
Encoding settings : cabac=1 / ref=9 / deblock=1:0:0 / analyse=0x3:0x113 / me=umh / subme=10 / psy=1 / psy_rd=1.00:0.00 / mixed_ref=1 / me_range=24 / chroma_me=1 / trellis=2 / 8x8dct=1 / cqm=0 / deadzone=21,11 / fast_pskip=0 / chroma_qp_offset=-2 / threads=12 / lookahead_threads=1 / sliced_threads=0 / nr=0 / decimate=1 / interlaced=0 / bluray_compat=0 / constrained_intra=0 / bframes=5 / b_pyramid=2 / b_adapt=2 / b_bias=0 / direct=3 / weightb=1 / open_gop=0 / weightp=2 / keyint=250 / keyint_min=25 / scenecut=40 / intra_refresh=0 / rc_lookahead=40 / rc=crf / mbtree=0 / crf=18.0 / qcomp=0.60 / qpmin=0 / qpmax=69 / qpstep=4 / vbv_maxrate=14000 / vbv_bufsize=14000 / crf_max=0.0 / nal_hrd=none / filler=0 / ip_ratio=1.40 / pb_ratio=1.30 / aq=3:1.00
Language : English
Default : Yes
Forced : No
Audio #1
ID : 2
Format : AC-3
Format/Info : Audio Coding 3
Mode extension : CM (complete main)
Format settings, Endianness : Big
Codec ID : A_AC3
Duration : 1h 46mn
Bit rate mode : Constant
Bit rate : 640 Kbps
Channel(s) : 6 channels
Channel positions : Front: L C R, Side: L R, LFE
Sampling rate : 48.0 KHz
Compression mode : Lossy
Stream size : 488 MiB (10%)
Title : Dub
Language : Russian
Default : Yes
Forced : No
Audio #2
ID : 3
Format : AC-3
Format/Info : Audio Coding 3
Mode extension : CM (complete main)
Format settings, Endianness : Big
Codec ID : A_AC3
Duration : 1h 46mn
Bit rate mode : Constant
Bit rate : 640 Kbps
Channel(s) : 6 channels
Channel positions : Front: L C R, Side: L R, LFE
Sampling rate : 48.0 KHz
Compression mode : Lossy
Stream size : 488 MiB (10%)
Title : Eng
Language : English
Default : No
Forced : No
Text #1
ID : 4
Format : UTF-8
Codec ID : S_TEXT/UTF8
Codec ID/Info : UTF-8 Plain Text
Title : Rus full
Language : Russian
Default : No
Forced : No
Text #2
ID : 5
Format : UTF-8
Codec ID : S_TEXT/UTF8
Codec ID/Info : UTF-8 Plain Text
Title : Eng full
Language : English
Default : No
Forced : No
Menu
00:00:00.000 : en:Chapter 01
00:08:02.689 : en:Chapter 02
00:16:26.235 : en:Chapter 03
00:25:18.516 : en:Chapter 04
00:31:01.276 : en:Chapter 05
00:36:48.246 : en:Chapter 06
00:43:08.917 : en:Chapter 07
00:47:09.492 : en:Chapter 08
00:54:09.328 : en:Chapter 09
01:00:32.961 : en:Chapter 10
01:08:02.202 : en:Chapter 11
01:14:44.104 : en:Chapter 12
01:21:04.067 : en:Chapter 13
01:29:15.515 : en:Chapter 14
01:32:57.320 : en:Chapter 15
01:37:28.341 : en:Chapter 16
01:46:34.136 : en:Chapter 17

[Цитировать]



Показать сообщения:    

Текущее время: 06-Дек 19:07

Часовой пояс: UTC + 3


Вы не можете начинать темы
Вы не можете отвечать на сообщения
Вы не можете редактировать свои сообщения
Вы не можете удалять свои сообщения
Вы не можете голосовать в опросах
Вы не можете прикреплять файлы к сообщениям
Вы не можете скачивать файлы

!ВНИМАНИЕ!
Сайт не предоставляет электронные версии произведений, а занимается лишь коллекционированием и каталогизацией ссылок, присылаемых и публикуемых на форуме нашими читателями. Если вы являетесь правообладателем какого-либо представленного материала и не желаете, чтобы ссылка на него находилась в нашем каталоге, свяжитесь с нами, и мы незамедлительно удалим ее. Файлы для обмена на трекере предоставлены пользователями сайта, и администрация не несет ответственности за их содержание. Просьба не заливать файлы, защищенные авторскими правами, а также файлы нелегального содержания!