[ Сегодня идет свободное скачивание без начисления Download ]


Статистика раздачи
Нет
 
   
 
Top  
 
 
Москва-Кассиопея / Отроки во Вселенной (1973-1974) DVDRip-AVC
Информация о фильме
Название: Москва-Кассиопея / Отроки во Вселенной
Год выхода: 1973-1974
Жанр: Фантастика, приключения, семейный
Режиссер: Ричард Викторов
В ролях: Михаил Ершов, Александр Григорьев, Владимир Савин, Владимир Басов мл., Ольга Битюкова, Вадим Ледогоров, Ирина Савина, Иннокентий Смоктуновский, Игорь Ледогоров, Наталья Фатеева, Анатолий Адоскин, Лев Дуров, Александр Леньков, Юрий Медведев, Александр Январёв, Артём Карапетян, Валентина Куценко, Раиса Рязанова, Надежда Семенцова, Наталья Стриженова
О фильме:
Москва-Кассиопея: Из глубин Вселенной до Земли долетает тревожный радиосигнал разумных существ. Проект, предложенный юным изобретателем Витей Середой, должен позволить земному звездолёту достичь планеты. Но полёт продлится 27 лет, поэтому экипаж космического корабля набирают из школьников. C этой целью создан звездолёт «ЗАРЯ». Всё тщательно продумано, однако тайком пробравшийся на звездолёт хулиган Федя Лобанов, помимо своей воли устраивает так, что корабль, превысив скорость света, оказывается у цели за несколько секунд…
Отроки во вселенной: Звездолёт «ЗАРЯ» с юными космонавтами приближается к планете системы звезды Шедар (Альфа Кассиопеи), с которой поступали сигналы о помощи. Выясняется, что планета захвачена роботами-андроидами, цель которых — «осчастливить» жителей планеты, лишив их всех чувств… Вторая часть увлекательной научно-фантастической дилогии Ричарда Викторова для подростков (начало — «Москва — Кассиопея»).
Страна: СССР, Киностудия им. М. Горького
Продолжительность: 2 x ~ 01:19:50
Перевод: не требуется
Файл
Кодек: x264
Качество: DVDRip-AVC
Видео: MPEG-4, ~ 1818 Кбит/с, [email protected], [email protected]
Звук: Русский (AC3, 6 ch, 448 Кбит/с), (AC3, 1 ch, 112 Кбит/с)

Медиа-Инфо

raw [info]: 710x416p 64:45 @ 25/1 fps (cfr)
x264 [info]: using SAR=64/45
x264 [info]: using cpu capabilities: MMX2 SSE2Fast SSSE3 SSE4.2 AVX
x264 [info]: profile High, level 4.1
x264 [info]: frame I:45 Avg QP:14.11 size: 66323
x264 [info]: frame P:740 Avg QP:18.63 size: 18387
x264 [info]: frame B:1717 Avg QP:20.15 size: 3582
=============================================================================================================
Общее
Уникальный идентификатор : 182032690359026773235799706357983413552 (0x88F2388E57CF61AA99D6EBA224250530)
Полное имя : R:МОИ РИПЫКассиопея-Отроки_1973-74-DVDRip-AVCМосква - Кассиопея_1973-DVDRip-AVC.mkv
Формат : Matroska
Версия формата : Version 2
Размер файла : 1,33 Гбайт
Продолжительность : 1 ч. 19 м.
Общий поток : 2380 Кбит/сек
Дата кодирования : UTC 2016-02-26 22:08:20
Программа кодирования : mkvmerge v5.8.0 ('No Sleep / Pillow') built on Sep 2 2012 15:37:04
Библиотека кодирования : libebml v1.2.3 + libmatroska v1.3.0
Видео
Идентификатор : 1
Формат : AVC
Формат/Информация : Advanced Video Codec
Профиль формата : [email protected]
Параметр CABAC формата : Да
Параметр ReFrames формата : 13 кадров
Идентификатор кодека : V_MPEG4/ISO/AVC
Продолжительность : 1 ч. 19 м.
Битрейт : 1818 Кбит/сек
Ширина : 710 пикселей
Высота : 416 пикселей
Соотношение сторон : 2,40:1
Соотношение сторон в оригинале : 2,40:1
Режим частоты кадров : Постоянный
Частота кадров : 25,000 кадров/сек
Цветовое пространство : YUV
Субдискретизация насыщенности : 4:2:0
Битовая глубина : 8 бит
Тип развёртки : Прогрессивная
Бит/(Пиксели*Кадры) : 0.246
Размер потока : 1013 Мбайт (74%)
Библиотека кодирования : x264 core 148 r2638 7599210
Настройки программы : cabac=1 / ref=13 / deblock=1:-2:-2 / analyse=0x3:0x133 / me=umh / subme=10 / psy=1 / psy_rd=1.05:0.13 / mixed_ref=1 / me_range=32 / chroma_me=1 / trellis=2 / 8x8dct=1 / cqm=0 / deadzone=21,11 / fast_pskip=0 / chroma_qp_offset=-3 / threads=12 / lookahead_threads=3 / sliced_threads=0 / nr=0 / decimate=0 / interlaced=0 / bluray_compat=0 / constrained_intra=0 / bframes=10 / b_pyramid=2 / b_adapt=2 / b_bias=0 / direct=3 / weightb=1 / open_gop=0 / weightp=2 / keyint=250 / keyint_min=25 / scenecut=40 / intra_refresh=0 / rc=2pass / mbtree=0 / bitrate=1818 / ratetol=1.0 / qcomp=0.63 / qpmin=0 / qpmax=39 / qpstep=4 / cplxblur=20.0 / qblur=0.5 / ip_ratio=1.40 / pb_ratio=1.30 / aq=1:1.00
Язык : English
Default : Да
Forced : Нет
Основные цвета : BT.601 PAL
Характеристики трансфера : BT.470 System B, BT.470 System G
Коэффициенты матрицы : BT.601
Аудио #1
Идентификатор : 2
Формат : AC-3
Формат/Информация : Audio Coding 3
Расширение режима : CM (complete main)
Параметр Endianness формата : Big
Идентификатор кодека : A_AC3
Продолжительность : 1 ч. 19 м.
Вид битрейта : Постоянный
Битрейт : 448 Кбит/сек
Каналы : 6 каналов
Расположение каналов : Front: L C R, Side: L R, LFE
Частота : 48,0 КГц
Битовая глубина : 16 бит
Метод сжатия : С потерями
Задержка видео : 520 мс.
Размер потока : 256 Мбайт (19%)
Язык : Russian
Default : Да
Forced : Нет
Аудио #2
Идентификатор : 3
Формат : AC-3
Формат/Информация : Audio Coding 3
Расширение режима : CM (complete main)
Параметр Endianness формата : Big
Идентификатор кодека : A_AC3
Продолжительность : 1 ч. 19 м.
Вид битрейта : Постоянный
Битрейт : 112 Кбит/сек
Каналы : 1 канал
Расположение каналов : Front: C
Частота : 48,0 КГц
Битовая глубина : 16 бит
Метод сжатия : С потерями
Задержка видео : 520 мс.
Размер потока : 64,0 Мбайт (5%)
Язык : Russian
Default : Нет
Forced : Нет
Релиз от:
Автор релиза:


Последний раз редактировалось: Mad1966 (2016-02-29 08:10), всего редактировалось 1 раз

[Цитировать]

Перед постером должен быть заголовок.

[Цитировать]



Показать сообщения:    

Текущее время: 05-Дек 03:31

Часовой пояс: UTC + 3


Вы не можете начинать темы
Вы не можете отвечать на сообщения
Вы не можете редактировать свои сообщения
Вы не можете удалять свои сообщения
Вы не можете голосовать в опросах
Вы не можете прикреплять файлы к сообщениям
Вы не можете скачивать файлы

!ВНИМАНИЕ!
Сайт не предоставляет электронные версии произведений, а занимается лишь коллекционированием и каталогизацией ссылок, присылаемых и публикуемых на форуме нашими читателями. Если вы являетесь правообладателем какого-либо представленного материала и не желаете, чтобы ссылка на него находилась в нашем каталоге, свяжитесь с нами, и мы незамедлительно удалим ее. Файлы для обмена на трекере предоставлены пользователями сайта, и администрация не несет ответственности за их содержание. Просьба не заливать файлы, защищенные авторскими правами, а также файлы нелегального содержания!