[ Сегодня идет свободное скачивание без начисления Download ]


Статистика раздачи
Скачал: [ 3 ]
 
   
 
Top  
 
 
Крадущийся тигр, затаившийся дракон: Меч судьбы / Crouching Tiger, Hidden Dragon: Sword of Destiny (2016) WEB-DLRip - Производство: США, China Film Group, Pegasus Taihe Entertainment, The Weinstein Company, Yucaipa Films
Жанр: Фэнтези, Боевик, Драма, Приключения
Режиссер: Юэнь Воо-пин
Актеры: Донни Ен, Мишель Йео, Гарри Шам мл., Джейсон Скотт Ли, Евгения Йуан, Жужу Чан, Крис Пэнг, Дэррил Квон, Роджер Йуан...
Описание:
История потерянной любви, легендарного меча и последнего шанса на искупление.
Рейтинг MPAA: PG-13 (детям до 13 лет просмотр нежелателен)
Дата мировой премьеры: 18 февраля 2016
Продолжительность: 01:40:50
Качество видео: WEB-DLRip Сэмпл
Перевод: Любительский многоголосый
Субтитры: Отсутствуют
Реклама: Внимание, присутствуют вставки голосовой и текстовой рекламы.
Видео: MPEG4, XviD, 720x304 (2.35:1), 23.976 fps, 1 865 Kbps (0.355 bit/pixel)
Аудио: AC-3, 48.0 KHz, 2 ch, 192 Kbps, CBR

Mediainfo:

Формат                                   : AVI
Формат/Информация                        : Audio Video Interleave
Размер файла                             : 1,46 Гбайт
Продолжительность                        : 1 ч. 40 м.
Общий поток                              : 2067 Кбит/сек
Программа кодирования                    : VirtualDubMod 1.5.10.3 | www.virtualdub-fr.org || (build 2550/release)
Библиотека кодирования                   : VirtualDubMod build 2550/release
Видео
Идентификатор                            : 0
Формат                                   : MPEG-4 Visual
Профиль формата                          : Advanced Simple@L5
Параметр BVOP формата                    : 2
Параметр QPel формата                    : Нет
Параметр GMC формата                     : Без точки перехода
Параметр матрицы формата                 : Default (MPEG)
Идентификатор кодека                     : XVID
Идентификатор кодека/Подсказка           : XviD
Продолжительность                        : 1 ч. 40 м.
Битрейт                                  : 1865 Кбит/сек
Ширина                                   : 720 пикселей
Высота                                   : 304 пикселя
Соотношение сторон                       : 2,35:1
Частота кадров                           : 23,976 кадра/сек
Цветовое пространство                    : YUV
Субдискретизация насыщенности            : 4:2:0
Битовая глубина                          : 8 бит
Тип развёртки                            : Прогрессивная
Метод сжатия                             : С потерями
Бит/(Пиксели*Кадры)                      : 0.355
Размер потока                            : 1,31 Гбайт (90%)
Библиотека кодирования                   : XviD 1.2.1 (UTC 2008-12-04)
Аудио
Идентификатор                            : 1
Формат                                   : AC-3
Формат/Информация                        : Audio Coding 3
Расширение режима                        : CM (complete main)
Параметр Endianness формата              : Big
Идентификатор кодека                     : 2000
Продолжительность                        : 1 ч. 40 м.
Вид битрейта                             : Постоянный
Битрейт                                  : 192 Кбит/сек
Каналы                                   : 2 канала
Расположение каналов                     : Front: L R
Частота                                  : 48,0 КГц
Битовая глубина                          : 16 бит
Метод сжатия                             : С потерями
Размер потока                            : 138 Мбайт (9%)
Выравнивание                             : Разделение по промежуткам
Продолжительность промежутка             : 42  мс. (1,00 видеокадр)
Время предзагрузки промежутка            : 500  мс.

Рецензия, отзыв:

Не так плохо, как могло быть
16 лет — нечасто зритель так долго ждет прямой сиквел полюбившегося фильма. Конечно, чуда не произошло и уже по трейлеру было понятно, что не стоит ждать от «Меча судьбы» поэтичности и красоты фильма Энга Ли. Но, знаете, бывает сиквел или продолжение, которое очерняет оригинал, из-за которого первый фильм становится тусклее — в данном случае этого не происходит, настолько разными получились ленты.
… Спустя годы после смерти Ли Му Бая грустная Шу Льен приезжает в Пекин в тот самый дом, где начались события оригинала. Вскоре становится понятно, что за Мечом Судьбы вот-вот пожалуют несколько не очень хороших китайцев. На призыв героини в дом для охраны меча приезжает команда героев с говорящими именами «Летающий клинок», «Серебряный дарт», «Железный ворон» и так далее.
Возглавляет эту команду «Тихий Волк» в исполнении Донни Йена, между которым и героиней Мишель Йео возникает такая невысказанная симпатия, наподобие тех чувств, что привязали ее к Ли Му Баю. Есть еще молодежь, которая тоже замешана в этой истории. Происходит ряд зрелищных схваток за обладание мечом. Все.
Собственно, получился именно тот «фильм про летающих китайцев», каким многим показалась первая лента. За 16 лет стиль вайр-фу буквально взлетел в Китае ("Воин», «Дом летающих кинжалов») и даже оставил след в Голливуде — например, во второй Матрице и прости Господи, сейчас уже забытых всеми Мушкетерах.
Сиквел, безусловно, дает испытать определенную «ламповую грусть» по жанру, однако ни одна из схваток не сравнится с куда более редкими, но хореографически и художественно идеальными сценами боев из первой части. А компьютерная графика хоть и не перегружает фильм, не добавляет зрителю восхищения от созерцания происходящего на экране. Стоит признать — все схватки неплохо поставлены, а бой на замерзшем озере ожидаемо красив.
Одна из лучших находок, перекочевавших из первого фильм — собственно, сам Меч Судьбы, вынесенный в название сиквела. Многие зрители обязательно зададутся вопросом — а зачем он вообще нужен, столько благородных и не очень мужей и дочерей полегло из-за него? Фишка именно в том, что Меч не дает никаких суперспособностей, он нужен как символ «Я дерусь, потому что дерусь» — потому что всегда есть плохие парни, которым должен прийти конец и есть заблудшие души, благодаря мечу, нашедшие свое предназначение.
7 из 10
Скриншоты:

[Цитировать]

Топик был перенесен из форума Новинки кинопроката в форум Фэнтези
Henkok



Показать сообщения:    

Текущее время: 09-Дек 16:34

Часовой пояс: UTC + 3


Вы не можете начинать темы
Вы не можете отвечать на сообщения
Вы не можете редактировать свои сообщения
Вы не можете удалять свои сообщения
Вы не можете голосовать в опросах
Вы не можете прикреплять файлы к сообщениям
Вы не можете скачивать файлы

!ВНИМАНИЕ!
Сайт не предоставляет электронные версии произведений, а занимается лишь коллекционированием и каталогизацией ссылок, присылаемых и публикуемых на форуме нашими читателями. Если вы являетесь правообладателем какого-либо представленного материала и не желаете, чтобы ссылка на него находилась в нашем каталоге, свяжитесь с нами, и мы незамедлительно удалим ее. Файлы для обмена на трекере предоставлены пользователями сайта, и администрация не несет ответственности за их содержание. Просьба не заливать файлы, защищенные авторскими правами, а также файлы нелегального содержания!