[ Today is free to download without increasing Download ]

DL-List and Torrent activity
Американский герой / American hero (2015) BDRip - Производство: США
Жанр: Мелодрама, Приключения, Криминал
Режиссер: Ник Лав
Актеры: Стивен Дорфф, Эдди Гриффин, Андреа Коэн, Луис Да Силва мл., Кина Фергюсон, Рэден Грир, Грэйсон Килпэтрик, Йоханс Майлс, Т. Джоэль Смит, Мишель Табора
А что, если сверхспособностями обладает не штампованный Храбрый Парень,
а раздолбай из социальных низов? А что если он только и делает, что тусит, "торчит", и развлекает публику дешевыми фокусами?
А что еще ему делать со всеми атрибутами, причитающимися бедным американским кварталам - бывшая жена-мегера, сын,
с которым ему нельзя видеться, друзья-барыги и ниггеры с пушками?
А что, если он попытается взять себя в руки и все изменить?
А давайте посмотрим...
Дата мировой премьеры: 2 октября 2015
Продолжительность: 01:26:16
Качество видео: BDRip Сэмпл
Перевод: Любительский (двухголосый, закадровый)
Субтитры: отсутствуют
Примечание: Присутствует ненормативная лексика
Видео: Xvid, 720х388, ~1 597 Kbps
Аудио 1: MP3, 2 ch, 128 Kbps
Аудио 2: AC3, 6ch, 448 kbps - оригинал


Complete name                            : C:\Users\cutter\Desktop\Временно\Amerian Hero.avi
Format                                   : AVI
Format/Info                              : Audio Video Interleave
File size                                : 1.32 GiB
Duration                                 : 1h 26mn
Overall bit rate                         : 2 187 Kbps
Movie name                               : American.Hero.2015.BRRip.XviD.AC3
Writing application                      : VirtualDubMod (build 2540/release)
Writing library                          : VirtualDubMod build 2540/release
Comment                                  : American.Hero.2015.BRRip.XviD.AC3
ID                                       : 0
Format                                   : MPEG-4 Visual
Format profile                           : Simple@L5
Format settings, BVOP                    : No
Format settings, QPel                    : No
Format settings, GMC                     : No warppoints
Format settings, Matrix                  : Default (H.263)
Codec ID                                 : XVID
Codec ID/Hint                            : XviD
Duration                                 : 1h 26mn
Bit rate                                 : 1 597 Kbps
Width                                    : 720 pixels
Height                                   : 388 pixels
Display aspect ratio                     : 1.85:1
Frame rate                               : 23.976 fps
Color space                              : YUV
Chroma subsampling                       : 4:2:0
Bit depth                                : 8 bits
Scan type                                : Progressive
Compression mode                         : Lossy
Bits/(Pixel*Frame)                       : 0.238
Stream size                              : 986 MiB (73%)
Writing library                          : Lavc56.60.100
Audio #1
ID                                       : 1
Format                                   : MPEG Audio
Format version                           : Version 1
Format profile                           : Layer 3
Mode                                     : Joint stereo
Mode extension                           : MS Stereo
Codec ID                                 : 55
Codec ID/Hint                            : MP3
Duration                                 : 1h 26mn
Bit rate mode                            : Constant
Bit rate                                 : 128 Kbps
Channel(s)                               : 2 channels
Sampling rate                            : 44.1 KHz
Compression mode                         : Lossy
Stream size                              : 79.0 MiB (6%)
Alignment                                : Split accross interleaves
Interleave, duration                     : 42 ms (1.00 video frame)
Interleave, preload duration             : 500 ms
Writing library                          : LAME3.98.4
Audio #2
ID                                       : 2
Format                                   : AC-3
Format/Info                              : Audio Coding 3
Mode extension                           : CM (complete main)
Format settings, Endianness              : Big
Codec ID                                 : 2000
Duration                                 : 1h 26mn
Bit rate mode                            : Constant
Bit rate                                 : 448 Kbps
Channel(s)                               : 6 channels
Channel positions                        : Front: L C R, Side: L R, LFE
Sampling rate                            : 48.0 KHz
Bit depth                                : 16 bits
Compression mode                         : Lossy
Stream size                              : 276 MiB (20%)
Alignment                                : Aligned on interleaves
Interleave, duration                     : 42 ms (1.00 video frame)
Interleave, preload duration             : 512 ms


Display posts:    

Current time is: 22-Oct 20:53

All times are UTC + 3

You cannot post new topics in this forum
You cannot reply to topics in this forum
You cannot edit your posts in this forum
You cannot delete your posts in this forum
You cannot vote in polls in this forum
You cannot attach files in this forum
You cannot download files in this forum

The site does not give electronic versions of products, and is engaged only in a collecting and cataloguing of the references sent and published at a forum by our readers. If you are the legal owner of any submitted material and do not wish that the reference to it was in our catalogue, contact us and we shall immediately remove her. Files for an exchange on tracker are given by users of a site, and the administration does not bear the responsibility for their maintenance. The request to not fill in the files protected by copyrights, and also files of the illegal maintenance!