[ Сегодня идет свободное скачивание без начисления Download ]


Статистика раздачи
Нет
 
   
 
Top  
 
 
Придорожное заведение / Red Rock West (1993) BDRip 720p Информация о фильме
Название: Придорожное заведение
Оригинальное название: Red Rock West
Год выхода: 1993
Жанр: триллер, драма, криминал
Режиссер: Джон Дал
В ролях: Николас Кейдж, Деннис Хоппер, Дж.Т. Уолш, Лара Флинн Бойл, Тимоти Кархарт, Дэн Шор, Дуайт Йоакам, Крэйг Рей, Вэнс Джонсон, Роберт Эпел
О фильме:
Майкл — бывший морской пехотинец. В его карманах пусто, а единственный шанс найти работу — заехать в придорожный бар Red rock west. В это самое утро местный шериф Уэйн, на самом деле беглый преступник, укравший вместе с женой Сьюзан полмиллиона долларов и разыскиваемый ФБР, поджидает прибытия наемного убийцы из Техаса, нанятого для устранения жены.
Увидев Техасские номера машины Майкла, Уэйн решает, что дождался киллера и вручает Майклу $ 5000 аванса за предстоящую работу. Майкл устремляется к Сьюзан, чтобы предупредить ее и скрыться с наличными. Но к его удивлению Сьюзан удваивает сумму, чтобы он убил Уэйна. Майкл соглашается, но чувствует, что пора смываться. А тем временем к городку подъезжает настоящий наемный убийца Лайл…

Страна: США
Студия: PolyGram Filmed Entertainment, Propaganda Films, Red Rock Films
Продолжительность: 01:38:39
Перевод: Профессиональный (многоголосый, закадровый) Пифагор + Профессиональный (многоголосый, закадровый) Варус Видео + Профессиональный (двухголосый, закадровый) НТВ+ + Авторский (одноголосый, закадровый) Ю.Живов + Авторский (одноголосый, закадровый) С.Кузнецов + Профессиональный (многоголосый, закадровый) Новый канал
Файл
Формат: Matroska
Видео: 1280x720 at 23.976 fps, [email protected], ~9686 kbps avg
Аудио#1: Russian: 48 kHz, AC3, 2/0 (L,R) ch, ~192 kbps avg |Многоголосый закадровый, Пифагор|
Аудио#2: Russian: 48 kHz, AC3, 2/0 (L,R) ch, ~192 kbps avg |Многоголосый закадровый, Варус Видео|
Аудио#3: Russian: 48 kHz, AC3, 2/0 (L,R) ch, ~192 kbps avg |Двухголосый закадровый, НТВ+|
Аудио#4: Russian: 48 kHz, FLAC 2/0, ~670 kbps avg |Авторский, Ю.Живов|
Аудио#5: Russian: 48 kHz, AC3, 2/0 (L,R) ch, ~192 kbps avg |Авторский, С.Кузнецов|
Аудио#6: Ukrainian: 48 kHz, AC3, 2/0 (L,R) ch, ~192 kbps avg |Многоголосый закадровый, Новый канал|
Аудио#7: English: 48 kHz, FLAC 2/0, ~659 kbps avg
Субтитры: Russian, Ukrainian (Forced), English
***Сохранены оригинальные чаптеры как на Blu-ray.
***Дорожка #4 получена путем наложения чистого голоса на L,R каналы оригинального DTS-HD MA.
***За НТВ+ спасибо: maksnew. За дорожку Кузнецова с VHS спасибо: sasikainen.
***За украинскую дорожку спасибо: Hurtom. Не хватает около двух минут перевода, имеются украинские субтитры на данный отрезок.
***В русских субтитрах присутствует ненормативная лексика.

Знаете ли Вы, что...

Несмотря на то, что действие фильма разворачивается в Вайоминге, съемки проходили в Монтане и Аризоне. Режиссер и сценарист картины Джон Дал родом из Монтаны.
Джон Дал поначалу хотел, чтобы Уэйна Брауна сыграл Деннис Хоппер, но тот уговорил режиссера дать ему роль Лайла из Далласа.
Николас Кейдж получил главную роль во многом благодаря рекомендации его дяди, Френсиса Форда Копполы, которому очень понравился дебютный фильма Дала «Убей меня снова» (1989).
Дуайт Йокем, сыгравший водителя грузовика, пользовался на съемках своим собственным пистолетом.
Когда фильм был впервые показан на публике, ни один из продюсеров не был замечен на показе.

MI

Общее
Уникальный идентификатор : 240418115313238444623136263282549295062 (0xB4DED8413D910506BADC1210582387D6)
Полное имя : Red.Rock.West.1993.720p.BluRay.5xRus.Ukr.Eng.HDCLUB-SbR.mkv
Формат : Matroska
Версия формата : Version 4 / Version 2
Размер файла : 8,26 Гбайт
Продолжительность : 1 ч. 38 м.
Режим общего битрейта : Переменный
Общий поток : 12,0 Мбит/сек
Дата кодирования : UTC 2016-02-26 13:28:59
Программа кодирования : mkvmerge v8.3.0 ('Over the Horizon') 64bit
Библиотека кодирования : libebml v1.3.1 + libmatroska v1.4.2
Attachements : cover.jpg
Видео
Идентификатор : 1
Формат : AVC
Формат/Информация : Advanced Video Codec
Профиль формата : [email protected]
Параметр CABAC формата : Да
Параметр ReFrames формата : 9 кадров
Идентификатор кодека : V_MPEG4/ISO/AVC
Продолжительность : 1 ч. 38 м.
Ширина : 1280 пикселей
Высота : 720 пикселей
Соотношение сторон : 16:9
Режим частоты кадров : Постоянный
Частота кадров : 23,976 кадра/сек
Цветовое пространство : YUV
Субдискретизация насыщенности : 4:2:0
Битовая глубина : 8 бит
Тип развёртки : Прогрессивная
Библиотека кодирования : x264 core 148 r2638+53 bb29004 t_mod_Custom [[email protected] X86_64]
Настройки программы : cabac=1 / ref=9 / deblock=1:-3:-3 / analyse=0x3:0x133 / me=umh / subme=11 / psy=1 / fade_compensate=0.00 / psy_rd=1.00:0.05 / mixed_ref=1 / me_range=24 / chroma_me=1 / trellis=2 / 8x8dct=1 / cqm=0 / deadzone=21,11 / fast_pskip=0 / chroma_qp_offset=-3 / threads=6 / lookahead_threads=1 / sliced_threads=0 / nr=0 / decimate=1 / interlaced=0 / bluray_compat=0 / constrained_intra=0 / fgo=0 / bframes=11 / b_pyramid=2 / b_adapt=2 / b_bias=0 / direct=3 / weightb=1 / open_gop=0 / weightp=2 / keyint=250 / keyint_min=23 / scenecut=40 / intra_refresh=0 / rc_lookahead=60 / rc=crf / mbtree=0 / crf=17.0000 / qcomp=0.60 / qpmin=0:0:0 / qpmax=69:69:69 / qpstep=4 / vbv_maxrate=62500 / vbv_bufsize=78125 / crf_max=0.0 / nal_hrd=none / filler=0 / ip_ratio=1.30 / pb_ratio=1.20 / aq=1:0.80 / aq-sensitivity=10.00 / aq-factor=1.00:1.00:1.00 / aq2=0 / aq3=0
Язык : English
Default : Да
Forced : Нет
Цветовой диапазон : Limited
Основные цвета : BT.709
Характеристики трансфера : BT.709
Коэффициенты матрицы : BT.709
Аудио #1
Идентификатор : 2
Формат : AC-3
Формат/Информация : Audio Coding 3
Расширение режима : CM (complete main)
Параметр Endianness формата : Big
Идентификатор кодека : A_AC3
Продолжительность : 1 ч. 38 м.
Вид битрейта : Постоянный
Битрейт : 192 Кбит/сек
Каналы : 2 канала
Расположение каналов : Front: L R
Частота : 48,0 КГц
Метод сжатия : С потерями
Размер потока : 135 Мбайт (2%)
Заголовок : Многоголосый закадровый, Пифагор
Язык : Russian
Default : Да
Forced : Нет
Аудио #2
Идентификатор : 3
Формат : AC-3
Формат/Информация : Audio Coding 3
Расширение режима : CM (complete main)
Параметр Endianness формата : Big
Идентификатор кодека : A_AC3
Продолжительность : 1 ч. 38 м.
Вид битрейта : Постоянный
Битрейт : 192 Кбит/сек
Каналы : 2 канала
Расположение каналов : Front: L R
Частота : 48,0 КГц
Метод сжатия : С потерями
Размер потока : 135 Мбайт (2%)
Заголовок : Многоголосый закадровый, Варус Видео
Язык : Russian
Default : Нет
Forced : Нет
Аудио #3
Идентификатор : 4
Формат : AC-3
Формат/Информация : Audio Coding 3
Расширение режима : CM (complete main)
Параметр Endianness формата : Big
Идентификатор кодека : A_AC3
Продолжительность : 1 ч. 38 м.
Вид битрейта : Постоянный
Битрейт : 192 Кбит/сек
Каналы : 2 канала
Расположение каналов : Front: L R
Частота : 48,0 КГц
Метод сжатия : С потерями
Размер потока : 135 Мбайт (2%)
Заголовок : Двухголосый закадровый, НТВ+
Язык : Russian
Default : Нет
Forced : Нет
Аудио #4
Идентификатор : 5
Формат : FLAC
Формат/Информация : Free Lossless Audio Codec
Идентификатор кодека : A_FLAC
Продолжительность : 1 ч. 38 м.
Вид битрейта : Переменный
Каналы : 2 канала
Частота : 48,0 КГц
Битовая глубина : 16 бит
Заголовок : Одноголосый закадровый, Ю.Живов
Библиотека кодирования : libFLAC 1.2.1 (UTC 2007-09-17)
Язык : Russian
Default : Нет
Forced : Нет
Аудио #5
Идентификатор : 6
Формат : AC-3
Формат/Информация : Audio Coding 3
Расширение режима : CM (complete main)
Параметр Endianness формата : Big
Идентификатор кодека : A_AC3
Продолжительность : 1 ч. 38 м.
Вид битрейта : Постоянный
Битрейт : 192 Кбит/сек
Каналы : 2 канала
Расположение каналов : Front: L R
Частота : 48,0 КГц
Метод сжатия : С потерями
Размер потока : 135 Мбайт (2%)
Заголовок : Одноголосый закадровый, С.Кузнецов
Язык : Russian
Default : Нет
Forced : Нет
Аудио #6
Идентификатор : 7
Формат : AC-3
Формат/Информация : Audio Coding 3
Расширение режима : CM (complete main)
Параметр Endianness формата : Big
Идентификатор кодека : A_AC3
Продолжительность : 1 ч. 38 м.
Вид битрейта : Постоянный
Битрейт : 192 Кбит/сек
Каналы : 2 канала
Расположение каналов : Front: L R
Частота : 48,0 КГц
Метод сжатия : С потерями
Размер потока : 135 Мбайт (2%)
Заголовок : Многоголосый закадровый, Новый канал
Язык : Ukrainian
Default : Нет
Forced : Нет
Аудио #7
Идентификатор : 8
Формат : FLAC
Формат/Информация : Free Lossless Audio Codec
Идентификатор кодека : A_FLAC
Продолжительность : 1 ч. 38 м.
Вид битрейта : Переменный
Каналы : 2 канала
Частота : 48,0 КГц
Битовая глубина : 16 бит
Библиотека кодирования : libFLAC 1.2.1 (UTC 2007-09-17)
Язык : English
Default : Нет
Forced : Нет
Текст #1
Идентификатор : 9
Формат : UTF-8
Идентификатор кодека : S_TEXT/UTF8
Идентификатор кодека/Информация : UTF-8 Plain Text
Язык : Russian
Default : Нет
Forced : Нет
Текст #2
Идентификатор : 10
Формат : UTF-8
Идентификатор кодека : S_TEXT/UTF8
Идентификатор кодека/Информация : UTF-8 Plain Text
Заголовок : for
Язык : Ukrainian
Default : Нет
Forced : Нет
Текст #3
Идентификатор : 11
Формат : UTF-8
Идентификатор кодека : S_TEXT/UTF8
Идентификатор кодека/Информация : UTF-8 Plain Text
Язык : English
Default : Нет
Forced : Нет
Меню
00:00:00.000 : en:00:00:00.000
00:09:10.548 : en:00:09:10.548
00:15:48.364 : en:00:15:48.364
00:24:41.980 : en:00:24:41.980
00:33:30.090 : en:00:33:30.090
00:41:34.157 : en:00:41:34.157
00:50:32.195 : en:00:50:32.195
00:58:20.121 : en:00:58:20.121
01:07:46.103 : en:01:07:46.103
01:17:47.537 : en:01:17:47.537
01:26:14.793 : en:01:26:14.793
01:34:31.623 : en:01:34:31.623

Скриншоты

[Цитировать]



Показать сообщения:    

Текущее время: 05-Дек 01:33

Часовой пояс: UTC + 3


Вы не можете начинать темы
Вы не можете отвечать на сообщения
Вы не можете редактировать свои сообщения
Вы не можете удалять свои сообщения
Вы не можете голосовать в опросах
Вы не можете прикреплять файлы к сообщениям
Вы не можете скачивать файлы

!ВНИМАНИЕ!
Сайт не предоставляет электронные версии произведений, а занимается лишь коллекционированием и каталогизацией ссылок, присылаемых и публикуемых на форуме нашими читателями. Если вы являетесь правообладателем какого-либо представленного материала и не желаете, чтобы ссылка на него находилась в нашем каталоге, свяжитесь с нами, и мы незамедлительно удалим ее. Файлы для обмена на трекере предоставлены пользователями сайта, и администрация не несет ответственности за их содержание. Просьба не заливать файлы, защищенные авторскими правами, а также файлы нелегального содержания!