[ Сегодня идет свободное скачивание без начисления Download ]


Статистика раздачи
Буду качать: [ 7 ]
Качаю: [ 6 ]
Скачал: [ 72 ]
 
   
 
Top  
 
 
Андрей Кудлай | Фреймворк Bootstrap: практика адаптивной верстки от А до Я (2015) PCRec - Автор (режиссер): Андрей Кудлай
Жанр: Обучающее видео
Описание:
Как я уже сказал, аналогов этому видеокурсу в Рунете в данный момент просто нет. На всем русскоязычном пространстве по состоянию на начало 2016 года нет ни одного исчерпывающего видеоруководства, которое полностью бы раскрывало все нюансы работы в этом невероятно популярном CSS-фреймворке.
Причем это касается как объема, так и качества, и актуальности материала. Все представленные на рынке руководства либо очень поверхностно освещают лишь несколько аспектов, либо устарели морально, либо их качество оставляет желать лучшего. Это же касается и курсов, которые можно найти и в свободном доступе.
Наш видеокурс уникален – как в плане СИСТЕМНОСТИ и объема знаний, которые он дает, так и его качества.
Только вдумайтесь: основная часть курса состоит из 49 огромных уроков. Средняя продолжительность урока – 20 минут.
Общая продолжительность основной части курса – около 17 часов!
ВНИМАНИЕ!!! виду того что не хватило оперативки, раздача с архивом (сжатие не применялось). Можно смело распаковать, и наслаждаться.
Продолжительность: 17:00:00
Качество видео: PCRec
Язык: Русский
Видео: MPEG-2, 1280x720, ~351 kbps
Аудио: AAC, 2 ch, 125 kbps

Mediainfo:

General
      Format : MPEG-4
      Format profile : Base Media / Version 2
      Codec ID : mp42
      File size : 52.9 MiB
      Duration : 14mn 6s
      Overall bit rate : 524 Kbps
      Encoded date : UTC 2015-12-22 12:58:17
      Tagged date : UTC 2015-12-22 12:58:17
   Video #1
      ID : 1
      Format : AVC
      Format/Info : Advanced Video Codec
      Format profile : High@L4
      Format settings, CABAC : Yes
      Format settings, ReFrames : 4 frames
      Codec ID : avc1
      Codec ID/Info : Advanced Video Coding
      Duration : 14mn 6s
      Source duration : 14mn 7s
      Bit rate : 397 Kbps
      Width : 1 280 pixels
      Height : 720 pixels
      Display aspect ratio : 16:9
      Frame rate mode : Constant
      Frame rate : 15.000 fps
      Color space : YUV
      Chroma subsampling : 4:2:0
      Bit depth : 8 bits
      Scan type : Progressive
      Bits/(Pixel*Frame) : 0.029
      Stream size : 40.1 MiB (76%)
      Source stream size : 40.1 MiB (76%)
      Language : English
      Encoded date : UTC 2015-12-22 12:58:17
      Tagged date : UTC 2015-12-22 12:58:17
      Color range : Limited
      Color primaries : BT.709
      Transfer characteristics : BT.709
      Matrix coefficients : BT.709
      mdhd_Duration : 846969
   Audio #2
      ID : 2
      Format : AAC
      Format/Info : Advanced Audio Codec
      Format profile : LC
      Codec ID : 40
      Duration : 14mn 6s
      Source duration : 14mn 6s
      Bit rate mode : Constant
      Bit rate : 125 Kbps
      Channel(s) : 2 channels
      Channel positions : Front: L R
      Sampling rate : 44.1 KHz
      Compression mode : Lossy
      Stream size : 12.6 MiB (24%)
      Source stream size : 12.6 MiB (24%)
      Language : English
      Encoded date : UTC 2015-12-22 12:58:17
      Tagged date : UTC 2015-12-22 12:58:17
      mdhd_Duration : 846665

Дополнительная информация:

А теперь – настало время поговорить о том подарке, который мы
с издательством WebForMySelf.com подготовили для вас…
Потому что на сегодняшний день это без преувеличения…
Наиболее полный и актуальный пошаговый
видеокурс по фреймворку Bootstrap в Рунете
«Фреймворк Bootstrap:
практика адаптивной верстки от А до Я»
Скриншоты:

[Цитировать]

не качает

[Цитировать]

46770не качает
Все качается!Не вводите народ в заблуждения!

[Цитировать]

Да качает, простите, почему то вылезла Ошибка в uTorrent: отказано в доступе write to disk. Правка пути помогла решить проблему.

[Цитировать]

Скачалось за 24 минуты. Все шикарно! Спасибо огромное, добрый человек!

[Цитировать]

Спасибо огромное, ЧЕЛОВИЧИЩЕ !!!

[Цитировать]

Огромное спасибо за данный курс!

[Цитировать]

Огромное спасибо!

[Цитировать]



Показать сообщения:    

Текущее время: 09-Дек 14:40

Часовой пояс: UTC + 3


Вы не можете начинать темы
Вы не можете отвечать на сообщения
Вы не можете редактировать свои сообщения
Вы не можете удалять свои сообщения
Вы не можете голосовать в опросах
Вы не можете прикреплять файлы к сообщениям
Вы не можете скачивать файлы

!ВНИМАНИЕ!
Сайт не предоставляет электронные версии произведений, а занимается лишь коллекционированием и каталогизацией ссылок, присылаемых и публикуемых на форуме нашими читателями. Если вы являетесь правообладателем какого-либо представленного материала и не желаете, чтобы ссылка на него находилась в нашем каталоге, свяжитесь с нами, и мы незамедлительно удалим ее. Файлы для обмена на трекере предоставлены пользователями сайта, и администрация не несет ответственности за их содержание. Просьба не заливать файлы, защищенные авторскими правами, а также файлы нелегального содержания!