[ Сегодня идет свободное скачивание без начисления Download ]


Статистика раздачи
Нет
 
   
 
Top  
 
 
Отчаянно ищу Сьюзэн / Desperately Seeking Susan (1985) BDRip 1080p Название: Отчаянно ищу Сьюзэн
Оригинальное название: Desperately Seeking Susan
Год выхода: 1985
Страна: США
Студия: Orion Pictures
Продолжительность: 01:43:42
Жанр: драма, комедия, ...
Режиссер: Сьюзэн Сейдельман
В ролях: Розанна Аркетт, Мадонна, Эйдан Куинн, Марк Блум, Лори Меткаф, Роберт Джой, Анна Левайн-Томпсон, Уилл Пэттон, Питер Мэлоуни, Стивен Райт, ...
Перевод:
Профессиональный (двухголосый, закадровый) HTB+ (Ольга Шорохова и Дмитрий Филимонов)
Профессиональный (двухголосый, закадровый) HTB (Наталья Варлей и Александр Новиков)
Авторский (одноголосый, закадровый) Королёв Владимир
Авторский (одноголосый, закадровый) Сербин Юрий Владимирович
О фильме: Роберта Гласс, жена удачливого бизнесмена, просматривая колонку частных объявлений в газете натыкается на короткое послание — «Отчаянно ищу Сьюзан».
Следующее объявление предлагает Сьюзан встречу и называет конкретное место. Роберта отправляется к месту свидания. Она начинает следить за Сьюзан, преследуя её по пятам. Ей невдомёк, что эта весёлая интрига втягивает её в опасную игру. За настоящей Сьюзан охотится убийца…

Кодек: x264
Качество: BDRip 1080p
Видео: 1916x1040 , 14000 kbps, 23,976 fps
Аудио #1: AC-3, 2 ch, 192 kbps (Rus) - DVO HTB+ (Ольга Шорохова и Дмитрий Филимонов)
Аудио #2: AC-3, 2 ch, 192 kbps (Rus) - DVO HTB (Наталья Варлей и Александр Новиков)
Аудио #3: AC-3, 2 ch, 192 kbps (Rus) - AVO Королёв Владимир
Аудио #4: AC-3, 2 ch, 192 kbps (Rus) - AVO Сербин Юрий Владимирович
Аудио #5: DTS, 2 ch, 1509 kbps (Eng)
Субтитры: Английские

MI

x264 [info]: frame I:787 Avg QP:18.70 size:190143
x264 [info]: frame P:26662 Avg QP:21.07 size:107713
x264 [info]: frame B:121715 Avg QP:23.04 size: 64605
x264 [info]: consecutive B-frames: 0.8% 1.2% 4.0% 14.4% 13.4% 36.2% 7.9% 3.5% 6.1% 2.8% 3.6% 4.7% 1.5%
Общее
Уникальный идентификатор : 171161777591038479787747659220736876473 (0x80C48F2CF48C4B99B99C1C787CDD1FB9)
Полное имя : C:TorrentОтчаянно ищу Сьюзэн (Desperately Seeking Susan) 1985 BDRip 1080p.mkv
Формат : Matroska
Версия формата : Version 2
Размер файла : 11,8 Гбайт
Продолжительность : 1 ч. 43 м.
Общий поток : 16,3 Мбит/сек
Дата кодирования : UTC 2016-03-03 21:19:46
Программа кодирования : mkvmerge v4.0.0 ('The Stars were mine') сборка от Jun 6 2010 16:18:42
Библиотека кодирования : libebml v1.0.0 + libmatroska v1.0.0
Видео
Идентификатор : 1
Формат : AVC
Формат/Информация : Advanced Video Codec
Профиль формата : High@L4.1
Параметр CABAC формата : Да
Параметр ReFrames формата : 4 кадра
Идентификатор кодека : V_MPEG4/ISO/AVC
Продолжительность : 1 ч. 43 м.
Битрейт : 14,0 Мбит/сек
Ширина : 1916 пикселей
Высота : 1040 пикселей
Соотношение сторон : 1,85:1
Режим частоты кадров : Постоянный
Частота кадров : 23,976 кадра/сек
Цветовое пространство : YUV
Субдискретизация насыщенности : 4:2:0
Битовая глубина : 8 бит
Тип развёртки : Прогрессивная
Бит/(Пиксели*Кадры) : 0.293
Размер потока : 9,91 Гбайт (84%)
Библиотека кодирования : x264 core 146 r2538 121396c
Настройки программы : cabac=1 / ref=4 / deblock=1:-3:-3 / analyse=0x3:0x133 / me=umh / subme=11 / psy=1 / psy_rd=1.10:0.16 / mixed_ref=1 / me_range=32 / chroma_me=1 / trellis=2 / 8x8dct=1 / cqm=0 / deadzone=21,11 / fast_pskip=0 / chroma_qp_offset=-3 / threads=12 / lookahead_threads=2 / sliced_threads=0 / nr=0 / decimate=0 / interlaced=0 / bluray_compat=0 / constrained_intra=0 / bframes=12 / b_pyramid=2 / b_adapt=2 / b_bias=0 / direct=3 / weightb=1 / open_gop=0 / weightp=2 / keyint=240 / keyint_min=23 / scenecut=40 / intra_refresh=0 / rc_lookahead=60 / rc=2pass / mbtree=0 / bitrate=14000 / ratetol=1.0 / qcomp=0.60 / qpmin=0 / qpmax=69 / qpstep=4 / cplxblur=20.0 / qblur=0.5 / vbv_maxrate=50000 / vbv_bufsize=62500 / nal_hrd=none / filler=0 / ip_ratio=1.40 / pb_ratio=1.30 / aq=1:0.90
Язык : English
Default : Нет
Forced : Нет
Аудио #1
Идентификатор : 2
Формат : AC-3
Формат/Информация : Audio Coding 3
Расширение режима : CM (complete main)
Параметр Endianness формата : Big
Идентификатор кодека : A_AC3
Продолжительность : 1 ч. 43 м.
Вид битрейта : Постоянный
Битрейт : 192 Кбит/сек
Каналы : 2 канала
Расположение каналов : Front: L R
Частота : 48,0 КГц
Метод сжатия : С потерями
Размер потока : 142 Мбайт (1%)
Заголовок : DVO HTB+ (Ольга Шорохова и Дмитрий Филимонов)
Язык : Russian
Default : Нет
Forced : Нет
Аудио #2
Идентификатор : 3
Формат : AC-3
Формат/Информация : Audio Coding 3
Расширение режима : CM (complete main)
Параметр Endianness формата : Big
Идентификатор кодека : A_AC3
Продолжительность : 1 ч. 43 м.
Вид битрейта : Постоянный
Битрейт : 192 Кбит/сек
Каналы : 2 канала
Расположение каналов : Front: L R
Частота : 48,0 КГц
Метод сжатия : С потерями
Размер потока : 142 Мбайт (1%)
Заголовок : DVO HTB (Наталья Варлей и Александр Новиков)
Язык : Russian
Default : Нет
Forced : Нет
Аудио #3
Идентификатор : 4
Формат : AC-3
Формат/Информация : Audio Coding 3
Расширение режима : CM (complete main)
Параметр Endianness формата : Big
Идентификатор кодека : A_AC3
Продолжительность : 1 ч. 43 м.
Вид битрейта : Постоянный
Битрейт : 192 Кбит/сек
Каналы : 2 канала
Расположение каналов : Front: L R
Частота : 48,0 КГц
Метод сжатия : С потерями
Размер потока : 142 Мбайт (1%)
Заголовок : AVO Королёв Владимир
Язык : Russian
Default : Нет
Forced : Нет
Аудио #4
Идентификатор : 5
Формат : AC-3
Формат/Информация : Audio Coding 3
Расширение режима : CM (complete main)
Параметр Endianness формата : Big
Идентификатор кодека : A_AC3
Продолжительность : 1 ч. 43 м.
Вид битрейта : Постоянный
Битрейт : 192 Кбит/сек
Каналы : 2 канала
Расположение каналов : Front: L R
Частота : 48,0 КГц
Метод сжатия : С потерями
Размер потока : 142 Мбайт (1%)
Заголовок : AVO Сербин Юрий Владимирович
Язык : Russian
Default : Нет
Forced : Нет
Аудио #5
Идентификатор : 6
Формат : DTS
Формат/Информация : Digital Theater Systems
Режим : 16
Параметр Endianness формата : Big
Идентификатор кодека : A_DTS
Продолжительность : 1 ч. 43 м.
Вид битрейта : Постоянный
Битрейт : 1509 Кбит/сек
Каналы : 2 канала
Расположение каналов : Front: L R
Частота : 48,0 КГц
Битовая глубина : 16 бит
Метод сжатия : С потерями
Размер потока : 1,09 Гбайт (9%)
Язык : English
Default : Нет
Forced : Нет
Текст
Идентификатор : 7
Формат : UTF-8
Идентификатор кодека : S_TEXT/UTF8
Идентификатор кодека/Информация : UTF-8 Plain Text
Язык : English
Default : Нет
Forced : Нет

Скриншоты


[Цитировать]



Показать сообщения:    

Текущее время: 03-Дек 01:24

Часовой пояс: UTC + 3


Вы не можете начинать темы
Вы не можете отвечать на сообщения
Вы не можете редактировать свои сообщения
Вы не можете удалять свои сообщения
Вы не можете голосовать в опросах
Вы не можете прикреплять файлы к сообщениям
Вы не можете скачивать файлы

!ВНИМАНИЕ!
Сайт не предоставляет электронные версии произведений, а занимается лишь коллекционированием и каталогизацией ссылок, присылаемых и публикуемых на форуме нашими читателями. Если вы являетесь правообладателем какого-либо представленного материала и не желаете, чтобы ссылка на него находилась в нашем каталоге, свяжитесь с нами, и мы незамедлительно удалим ее. Файлы для обмена на трекере предоставлены пользователями сайта, и администрация не несет ответственности за их содержание. Просьба не заливать файлы, защищенные авторскими правами, а также файлы нелегального содержания!