[ Сегодня идет свободное скачивание без начисления Download ]


Статистика раздачи
Нет
 
   
 
Top  
 
 
Все любят китов / Big Miracle (2012) BDRip-AVC Информация о фильме
Название: Все любят китов
Оригинальное название: Big Miracle
Год выпуска: 2012
Страна: США, Великобритания
Жанр: драма, мелодрама, семейный-Перевод: Дубляж - [Лицензия]
Продолжительность: 01:46:48-Режиссер: Кен Куопис
В ролях: Дрю Бэрримор (Rachel Kramer), Джон Красински (Adam Carlson), Кристен Белл (Jill Jerard), Дермот Малруни (Colonel Scott Boyer), Тим Блейк Нельсон (Pat Lafaytette), Винесса Шоу (Kelly Meyers), Тед Дэнсон (J. W. McGraw), Стивен Рут (Governor Haskell), Джон Майкл Хиггинс (Wes Handrick), Джеймс ЛеГрос (Karl Hootkin), Роб Риггл (Dean Glowacki), Ши Уигхэм (SAR Pilot Conrad)-Описание:
Фильм основан на реальных событиях, произошедших в 1988 году. В маленьком городке на Аляске репортер и его бывшая девушка, активистка «Гринпис», пытаются спасти трёх серых китов, попавших в ледяную ловушку в арктических льдах. Привлекая в помощь местных жителей, нефтяные компании, а также российские и американские вооруженные силы, героям картины предстоит организовать беспрецедентную операцию по спасению китов.-Рейтинг:

MPAA: PG - Рекомендуется присутствие родителей-Качество: BDRip-AVC
Формат: MKV
Видео: AVC, 1024x426 (2.40:1), 1507 kbps, 23,976 fps, 0,144 bpp
Аудио: AC3 / 5.1 / 48 kHz / 448 kbps / 16 bit-

ОтчетМедиаИнфо

General
Unique ID : 181513638289980711078328171743576117311 (0x888E41502EAAF182978847545404D03F)
Complete name : D:downloadBig Miracle.2012.BDRip-AVC by schultz R.G.Resident.mkv
Format : Matroska
Format version : Version 2
File size : 1.45 GiB
Duration : 1h 46mn
Overall bit rate : 1 943 Kbps
Encoded date : UTC 2016-03-03 15:39:42
Writing application : mkvmerge v7.8.0 ('River Man') 32bit built on Apr 3 2015 12:11:22
Writing library : libebml v1.3.1 + libmatroska v1.4.2
Video
ID : 1
Format : AVC
Format/Info : Advanced Video Codec
Format profile : High@L4.1
Format settings, CABAC : Yes
Format settings, ReFrames : 12 frames
Codec ID : V_MPEG4/ISO/AVC
Duration : 1h 46mn
Bit rate : 1 507 Kbps
Width : 1 024 pixels
Height : 426 pixels
Display aspect ratio : 2.40:1
Frame rate : 23.976 fps
Color space : YUV
Chroma subsampling : 4:2:0
Bit depth : 8 bits
Scan type : Progressive
Bits/(Pixel*Frame) : 0.144
Stream size : 1.09 GiB (75%)
Writing library : x264 core 146 r2538 121396c
Encoding settings : cabac=1 / ref=12 / deblock=1:-3:-3 / analyse=0x3:0x113 / me=umh / subme=11 / psy=1 / psy_rd=1.00:0.00 / mixed_ref=1 / me_range=48 / chroma_me=1 / trellis=2 / 8x8dct=1 / cqm=0 / deadzone=21,11 / fast_pskip=0 / chroma_qp_offset=-2 / threads=12 / lookahead_threads=3 / sliced_threads=0 / nr=0 / decimate=1 / interlaced=0 / bluray_compat=0 / constrained_intra=0 / bframes=13 / b_pyramid=2 / b_adapt=2 / b_bias=0 / direct=3 / weightb=1 / open_gop=0 / weightp=2 / keyint=240 / keyint_min=23 / scenecut=40 / intra_refresh=0 / rc_lookahead=40 / rc=2pass / mbtree=1 / bitrate=1507 / ratetol=1.0 / qcomp=0.60 / qpmin=0 / qpmax=69 / qpstep=4 / cplxblur=20.0 / qblur=0.5 / vbv_maxrate=14000 / vbv_bufsize=14000 / nal_hrd=none / filler=0 / ip_ratio=1.40 / aq=1:1.00
Default : Yes
Forced : No
Audio
ID : 2
Format : AC-3
Format/Info : Audio Coding 3
Mode extension : CM (complete main)
Codec ID : A_AC3
Duration : 1h 46mn
Bit rate mode : Constant
Bit rate : 448 Kbps
Channel(s) : 6 channels
Channel positions : Front: L C R, Side: L R, LFE
Sampling rate : 48.0 KHz
Bit depth : 16 bits
Compression mode : Lossy
Stream size : 342 MiB (23%)
Default : Yes
Forced : No

Скриншоты

[Цитировать]



Показать сообщения:    

Текущее время: 07-Дек 13:41

Часовой пояс: UTC + 3


Вы не можете начинать темы
Вы не можете отвечать на сообщения
Вы не можете редактировать свои сообщения
Вы не можете удалять свои сообщения
Вы не можете голосовать в опросах
Вы не можете прикреплять файлы к сообщениям
Вы не можете скачивать файлы

!ВНИМАНИЕ!
Сайт не предоставляет электронные версии произведений, а занимается лишь коллекционированием и каталогизацией ссылок, присылаемых и публикуемых на форуме нашими читателями. Если вы являетесь правообладателем какого-либо представленного материала и не желаете, чтобы ссылка на него находилась в нашем каталоге, свяжитесь с нами, и мы незамедлительно удалим ее. Файлы для обмена на трекере предоставлены пользователями сайта, и администрация не несет ответственности за их содержание. Просьба не заливать файлы, защищенные авторскими правами, а также файлы нелегального содержания!