[ Сегодня идет свободное скачивание без начисления Download ]


Статистика раздачи
Нет
 
   
 
Top  
 
 
Срочная доставка / Premium Rush«Ride Like Hell»
Год выпуска: 2012
Страна: США
Производство: Pariah
Жанр: боевик, триллер
Режиссер: Дэвид Кепп
В ролях: Джозеф Гордон-Левитт, Дания Рамирез, Ким Перфетто, Энтони Чишолм, Эшли Остин Моррис, Уоли Паркс, Аасиф Мандви, Лорен Эшли Картер
Перевод: Профессиональный (многоголосый, закадровый) + Оригинал
Субтитры: Русские (полные, форсированные), Украинские, Английские (полные, форсированные)
Описание: Нью-йоркский посыльный в один прекрасный день забирает некий конверт в Колумбийском университете. Но оказывается, что содержимое послания очень интересует одного коррумпированного полицейского, который начинает преследование героя.

Релиз от:
Качество: BDRip 1080p
Продолжительность: 01:30:57
Формат: MKV
Главы: Есть
Видео кодек: AVC High@L4.1
Аудио кодек: AC3, DTS
Видео: MPEG-4 AVC Video, 1920x800 (2.40:1), ~ 10.5 Mbps avg, 23.976 fps, High Profile 4.1
Аудио: AC3, 48 kHz, 3/2 (L,C,R,l,r) + LFE ch, ~640 kbps avg [Russian] | MVO
Аудио #2: DTS, 48 kHz/24-bit, 3/2 (L,C,R,l,r) + LFE ch, ~1510 kbps avg [English]

Media Info

Format : Matroska
Format version : Version 2
File size : 8.04 GiB
Duration : 1h 30mn
Overall bit rate : 12.6 Mbps
Movie name : _CMEGRoup_BLUEBIRD
Encoded date : UTC 2012-11-29 09:50:20
Writing application : mkvmerge v5.8.0 ('No Sleep / Pillow') built on Sep 2 2012 15:37:04
Writing library : libebml v1.2.3 + libmatroska v1.3.0
Video
ID : 1
Format : AVC
Format/Info : Advanced Video Codec
Format profile : High@L4.1
Format settings, CABAC : Yes
Format settings, ReFrames : 4 frames
Codec ID : V_MPEG4/ISO/AVC
Duration : 1h 30mn
Bit rate : 10.5 Mbps
Width : 1 920 pixels
Height : 800 pixels
Display aspect ratio : 2.40:1
Frame rate : 23.976 fps
Color space : YUV
Chroma subsampling : 4:2:0
Bit depth : 8 bits
Scan type : Progressive
Bits/(Pixel*Frame) : 0.285
Stream size : 6.51 GiB (81%)
Writing library : x264 core 129 r2230 1cffe9f
Encoding settings : cabac=1 / ref=4 / deblock=1:-3:-3 / analyse=0x3:0x113 / me=umh / subme=10 / psy=1 / psy_rd=1.00:0.00 / mixed_ref=1 / me_range=24 / chroma_me=1 / trellis=2 / 8x8dct=1 / cqm=0 / deadzone=21,11 / fast_pskip=1 / chroma_qp_offset=-2 / threads=6 / lookahead_threads=1 / sliced_threads=0 / nr=0 / decimate=1 / interlaced=0 / bluray_compat=0 / constrained_intra=0 / bframes=6 / b_pyramid=2 / b_adapt=2 / b_bias=0 / direct=2 / weightb=0 / open_gop=0 / weightp=2 / keyint=240 / keyint_min=23 / scenecut=40 / intra_refresh=0 / rc_lookahead=40 / rc=2pass / mbtree=1 / bitrate=10500 / ratetol=1.0 / qcomp=0.60 / qpmin=0 / qpmax=69 / qpstep=4 / cplxblur=20.0 / qblur=0.5 / ip_ratio=1.40 / aq=1:1.00 / zones=123919,130846,q=40
Language : English
Default : Yes
Forced : No
Audio #1
ID : 2
Format : AC-3
Format/Info : Audio Coding 3
Mode extension : CM (complete main)
Format settings, Endianness : Big
Codec ID : A_AC3
Duration : 1h 30mn
Bit rate mode : Constant
Bit rate : 640 Kbps
Channel(s) : 6 channels
Channel positions : Front: L C R, Side: L R, LFE
Sampling rate : 48.0 KHz
Bit depth : 16 bits
Compression mode : Lossy
Stream size : 416 MiB (5%)
Language : Russian
Default : Yes
Forced : No
Audio #2
ID : 3
Format : DTS
Format/Info : Digital Theater Systems
Codec ID : A_DTS
Duration : 1h 30mn
Bit rate mode : Constant
Bit rate : 1 510 Kbps
Channel(s) : 6 channels
Channel positions : Front: L C R, Side: L R, LFE
Sampling rate : 48.0 KHz
Bit depth : 24 bits
Compression mode : Lossy
Stream size : 982 MiB (12%)
Language : English
Default : No
Forced : No
Text #1
ID : 4
Format : UTF-8
Codec ID : S_TEXT/UTF8
Codec ID/Info : UTF-8 Plain Text
Title : Russian (Full)
Language : Russian
Default : No
Forced : No
Text #2
ID : 5
Format : UTF-8
Codec ID : S_TEXT/UTF8
Codec ID/Info : UTF-8 Plain Text
Title : Ukrainian (Full)
Language : Ukrainian
Default : No
Forced : No
Text #3
ID : 6
Format : UTF-8
Codec ID : S_TEXT/UTF8
Codec ID/Info : UTF-8 Plain Text
Title : English (Full)
Language : English
Default : No
Forced : No
Text #4
ID : 7
Format : UTF-8
Codec ID : S_TEXT/UTF8
Codec ID/Info : UTF-8 Plain Text
Title : English (Forced)
Language : English
Default : No
Forced : No
Menu
00:00:00.000 : :Chapter 01
00:05:43.301 : :Chapter 02
00:10:33.674 : :Chapter 03
00:19:39.845 : :Chapter 04
00:22:41.401 : :Chapter 05
00:28:54.107 : :Chapter 06
00:33:01.562 : :Chapter 07
00:37:37.171 : :Chapter 08
00:44:25.412 : :Chapter 09
00:50:52.758 : :Chapter 10
00:55:17.772 : :Chapter 11
00:58:40.600 : :Chapter 12
01:02:10.935 : :Chapter 13
01:09:15.234 : :Chapter 14
01:15:52.756 : :Chapter 15
01:22:29.861 : :Chapter 16

[Цитировать]



Показать сообщения:    

Текущее время: 08-Дек 21:17

Часовой пояс: UTC + 3


Вы не можете начинать темы
Вы не можете отвечать на сообщения
Вы не можете редактировать свои сообщения
Вы не можете удалять свои сообщения
Вы не можете голосовать в опросах
Вы не можете прикреплять файлы к сообщениям
Вы не можете скачивать файлы

!ВНИМАНИЕ!
Сайт не предоставляет электронные версии произведений, а занимается лишь коллекционированием и каталогизацией ссылок, присылаемых и публикуемых на форуме нашими читателями. Если вы являетесь правообладателем какого-либо представленного материала и не желаете, чтобы ссылка на него находилась в нашем каталоге, свяжитесь с нами, и мы незамедлительно удалим ее. Файлы для обмена на трекере предоставлены пользователями сайта, и администрация не несет ответственности за их содержание. Просьба не заливать файлы, защищенные авторскими правами, а также файлы нелегального содержания!