[ Сегодня идет свободное скачивание без начисления Download ]


Статистика раздачи
Нет
 
   
 
Top  
 
 
- Боги Египта / Gods of Egypt - Производство: США / TIK Films, Mystery Clock Cinema, Summit Entertainment
Жанр: Фэнтези, Приключения, Боевик
Режиссер: Алекс Пройас
Продюсер: Бэзил Иваник, Алекс Пройас, Брайан Букман
Актеры: Николай Костер-Валдау, Джерард Батлер, Джеффри Раш, Брентон Туэйтс, Эбби Ли, Кортни Итон
Описание:
Некогда мирное и процветающее египетское царство погружается в хаос: беспощадный бог тьмы Сет убивает своего брата Осириса и узурпирует трон. Вызов ему неожиданно бросает простой смертный, находчивый молодой вор. Чтобы вернуть к жизни свою прекрасную возлюбленную, ему приходится заручиться поддержкой могущественного и мстительного бога Гора. Лишь выдержав испытание на прочность и принеся в жертву все самое дорогое, им удастся противостоять Сету и его приспешникам в мире живых и мире мертвых.

Возраст: 16+ (зрителям, достигшим 16 лет)
Рейтинг MPAA: PG-13 (детям до 13 лет просмотр нежелателен)
Дата мировой премьеры: 24 февраля 2016
Дата премьеры в России: 25 февраля 2016, «Централ Партнершип»

Продолжительность: 01:56:09
Качество видео: TS
Перевод: Профессиональный (полное дублированние)
Реклама: Удалены вставки голосовой и текстовой рекламы!!!
Видео: Xvid, 720х352, ~1539 Кбит/сек
Аудио: MP3, 2 ch, 128 Кбит/сек, CBR

Mediainfo:

Общее
Формат : AVI
Формат/Информация : Audio Video Interleave
Размер файла : 1,36 Гбайт
Продолжительность : 1 ч. 56 м.
Общий поток : 1678 Кбит/сек
Программа кодирования : VirtualDubMod 1.5.10.3 | (build 2550/release)
Библиотека кодирования : VirtualDub build 35576/release
Видео
Идентификатор : 0
Формат : MPEG-4 Visual
Профиль формата : Advanced Simple@L5
Параметр BVOP формата : 2
Параметр QPel формата : Нет
Параметр GMC формата : Без точки перехода
Параметр матрицы формата : Default (H.263)
Режим смешивания : Сжатый битовый поток
Идентификатор кодека : XVID
Идентификатор кодека/Подсказка : XviD
Продолжительность : 1 ч. 56 м.
Битрейт : 1539 Кбит/сек
Ширина : 720 пикселей
Высота : 352 пикселя
Соотношение сторон : 2,045
Частота кадров : 29,970 кадров/сек
Цветовое пространство : YUV
Субдискретизация насыщенности : 4:2:0
Битовая глубина : 8 бит
Тип развёртки : Прогрессивная
Метод сжатия : С потерями
Бит/(Пиксели*Кадры) : 0.203
Размер потока : 1,25 Гбайт (92%)
Библиотека кодирования : XviD 73
Аудио
Идентификатор : 1
Формат : MPEG Audio
Версия формата : Version 1
Профиль формата : Layer 3
Режим : Joint stereo
Расширение режима : MS Stereo
Идентификатор кодека : 55
Идентификатор кодека/Подсказка : MP3
Продолжительность : 1 ч. 56 м.
Вид битрейта : Постоянный
Битрейт : 128 Кбит/сек
Каналы : 2 канала
Частота : 48,0 КГц
Метод сжатия : С потерями
Размер потока : 106 Мбайт (8%)
Выравнивание : Разделение по промежуткам
Продолжительность промежутка : 33 мс. (1,00 видеокадр)
Время предзагрузки промежутка : 500 мс.

Рецензия, отзыв:

Боги Египта
Что мы знаем о них? вообще-то, немало. Сохранились их изображения и храмы, сохранились их упоминания в летописях тех древних лет. Древний Египет (страна Та Кемт) был величайшей цивилизацией и эта цивилизация сумела просуществовать не менее практически трех с половиной тысяч лет (Поднебесная этот рекорд пока ещё не побила). Мифологи Древнего Египта периодически использовалась Голливудом, но, как правило, на вторых т. с. с, ролях. Мумии там всякие, монстры-хранители пирамид… Модернистские концепции с богами, то стремящихся оплодотворить женщин из будущего, то хранителей врат миров, мы тут расматривать сейчас не будем. А скажем что Пройас сумел снять отличное по визуальным характеристикам кино. А ещё это по сути своей ретро-блокбастер, в духе той самой первой «Битвы титанов». Но поглупее, конечно. Попсовее. Но, скажу Вам честно, имея в своём резюме хотя бы один лишь тот «Тёмный город», можно идти на многое. Теперь собственно про сам новый блокбастер. Да, при желании его, пожалуй, можно разнести в хвост и гриву, и с какими-нибудь «Боготитанами-3/…» я бы именно так и поступил. но здесь я сделаю картине огромадную скидку на почти что терра инкогнита, по которой отважилась она пройти. И ведь фильм получился!
Да, это стандартный развлекательный блокбастер. Но и такое кино тоже нужно. Новая для большинства зрителей мифология. Очень красивый визуал. И пусть поначалу есть такое чувство, что смотришь какого-нибудь очередного Аладдина, сюжет, слабый и робкий как птенчик, вдруг расправляет свои крылья. и пусть поначалу порою хочется реально прибить эту птичку, к финалу она вырастет таки в настоящего гадкого лебедя. Плевать на кудряшки, но великолепнейший просто Сет в исполнении Дж. Батлера (так и ждёшь от него «Это ЕГИПЕЕЕТ!!!»), хороший Гор в исполнении Николая Костер-Вальдау, сильный Анубис… А Джеффри Раш, бог Ра — капитан солнечной ладьи и великий воин. Настоящий воин, понимающий когда и против чего стоит сражаться.
Вообще, мифология древнего мира показана неплохо. я имею в виду загробное царство и космогонию с парением в вечности. Да, хватает ошибок и неточностей, но, во имя Сехмет, этот же чисто развлекательное фантастическое кино! Не историческое. Ещё в середине фильм чуток провисает, аки хвост змея. Минут на 20 могли бы и сократить. Но в общем и целом — вполне достойная сказка получилась. Пусть и на один раз. И очень интересно наблюдать, как перерабатываются Голливудом древние мифы и сказания.
Красная пустыня, скорпионы, пирамиды и гигантские кобры. Тёмный бог пустыни (жаль что рыжеволосым Батлера не сделали) и бог неба. От цаей скорпионов — до двуединого царства людей… в будущем. А высоко над земной твердью, над живительным Нилом плывёт ладья солнцеликого Ра. (да, про Атона вспоминать сейчас не будем)
Резюме:
Вполне нормальный развлекательный блокбастер. Было красиво. Большая разборка древнеегипетских богов удалась весьма.

Скриншоты

[Цитировать]

Топик был перенесен из форума Новинки кинопроката 2016 в форум Поглощенные
D-r Woland_kz



Показать сообщения:    

Текущее время: 29-Июн 15:01

Часовой пояс: UTC + 6


Вы не можете начинать темы
Вы не можете отвечать на сообщения
Вы не можете редактировать свои сообщения
Вы не можете удалять свои сообщения
Вы не можете голосовать в опросах
Вы не можете прикреплять файлы к сообщениям
Вы не можете скачивать файлы

!ВНИМАНИЕ!
Сайт не предоставляет электронные версии произведений, а занимается лишь коллекционированием и каталогизацией ссылок, присылаемых и публикуемых на форуме нашими читателями. Если вы являетесь правообладателем какого-либо представленного материала и не желаете, чтобы ссылка на него находилась в нашем каталоге, свяжитесь с нами, и мы незамедлительно удалим ее. Файлы для обмена на трекере предоставлены пользователями сайта, и администрация не несет ответственности за их содержание. Просьба не заливать файлы, защищенные авторскими правами, а также файлы нелегального содержания!