[ Сегодня идет свободное скачивание без начисления Download ]


Статистика раздачи
Нет
 
   
 
Top  
 
 
Лавалантула / Lavalantula (2015) HDRip - Производство: США / Cinetel Films, Syfy
Жанр: Ужасы, Фантастика
Режиссер: Майк Мендез
Актеры: Стив Гуттенберг, Ниа Пиплз, Патрик Ренна, Карлос Бернард, Майкл Уинслоу, Мэрион Рэмси, Лесли Истербрук, Ральф Гармен, Дэнни Вудберн, Ной Хант
Описание:
Звезда «Полицейской академии» Стив Гуттенберг в фантастическом фильме ужасов об огненном пауке, сеющем всюду разрушение и смерть. Немолодой актер Колтон Уэст, который был популярен в 90-х, но теперь всеми забыт, ссорится во время съемок фильма о жуках с режиссером картины и в конечном итоге теряет роль. До этого события он был арестован в Санта-Монике по обвинению в нападении и сопротивлении аресту. СМИ считают, что таким образом актер пытался лишь привлечь к себе внимание. Но судьба подбрасывает Колтону другую возможность вновь заявить о себе: он становится непосредственным участником ужасающих событий в Лос-Анджелесе. Все начинается с землетрясения, следом извергается вулкан, ну а потом в охваченном огнем городе появляется гигантский огнедышащий паук. И во всем этом апокалипсисе Уэсту отведена главная роль.
Продолжительность: 01:23:39
Качество видео: HDRip Сэмпл
Перевод: Многоголосый закадровый, профессиональный
Субтитры: Отсутствуют
Видео: Xvid, 720x400 (16:9), 23.976 fps, ~1921 Kbps (0.278 bit/pixel)
Аудио: AC-3, 48.0 KHz, 2 ch, 384 Kbps, CBR

Mediainfo:

General
Complete name                  : C:\Фильмы\Lavalantula.2015.HDRip.avi
Format                         : AVI
Format/Info                    : Audio Video Interleave
File size                      : 1.35 GiB
Duration                       : 1h 23mn
Overall bit rate               : 2 314 Kbps
Writing application            : VirtualDubMod 1.5.10.2 (build 2540/release)
Writing library                : VirtualDubMod build 2540/release
Video
ID                             : 0
Format                         : MPEG-4 Visual
Format profile                 : Advanced Simple@L5
Format settings, BVOP          : 2
Format settings, QPel          : No
Format settings, GMC           : No warppoints
Format settings, Matrix        : Default (H.263)
Muxing mode                    : Packed bitstream
Codec ID                       : XVID
Codec ID/Hint                  : XviD
Duration                       : 1h 23mn
Bit rate                       : 1 921 Kbps
Width                          : 720 pixels
Height                         : 400 pixels
Display aspect ratio           : 16:9
Frame rate                     : 23.976 fps
Color space                    : YUV
Chroma subsampling             : 4:2:0
Bit depth                      : 8 bits
Scan type                      : Progressive
Compression mode               : Lossy
Bits/(Pixel*Frame)             : 0.278
Stream size                    : 1.12 GiB (83%)
Writing library                : XviD 66
Audio
ID                             : 1
Format                         : AC-3
Format/Info                    : Audio Coding 3
Mode extension                 : CM (complete main)
Format settings, Endianness    : Big
Codec ID                       : 2000
Duration                       : 1h 23mn
Bit rate mode                  : Constant
Bit rate                       : 384 Kbps
Channel(s)                     : 2 channels
Channel positions              : Front: L R
Sampling rate                  : 48.0 KHz
Compression mode               : Lossy
Stream size                    : 230 MiB (17%)
Alignment                      : Split accross interleaves
Interleave, duration           : 42 ms (1.00 video frame)
Interleave, preload duration   : 500 ms
Скриншоты:

[Цитировать]



Показать сообщения:    

Текущее время: 22-Фев 16:07

Часовой пояс: UTC + 3


Вы не можете начинать темы
Вы не можете отвечать на сообщения
Вы не можете редактировать свои сообщения
Вы не можете удалять свои сообщения
Вы не можете голосовать в опросах
Вы не можете прикреплять файлы к сообщениям
Вы не можете скачивать файлы

!ВНИМАНИЕ!
Сайт не предоставляет электронные версии произведений, а занимается лишь коллекционированием и каталогизацией ссылок, присылаемых и публикуемых на форуме нашими читателями. Если вы являетесь правообладателем какого-либо представленного материала и не желаете, чтобы ссылка на него находилась в нашем каталоге, свяжитесь с нами, и мы незамедлительно удалим ее. Файлы для обмена на трекере предоставлены пользователями сайта, и администрация не несет ответственности за их содержание. Просьба не заливать файлы, защищенные авторскими правами, а также файлы нелегального содержания!