[ Сегодня идет свободное скачивание без начисления Download ]


Статистика раздачи
Качаю: [ 1 ]
Скачал: [ 2 ]
 
   
 
Top  
 
 
Максим Федоров | Архитектурное 3d моделирование в AutoCAD (2014) PCRec- Автор (режиссер): Максим Федоров
Жанр: AutoCAD, 3D моделирование
Продолжительность: 14:00:00
Качество видео: PCRec
Видеокодек: AVC
Битрейт видео: ~217 kbps
Размер кадра: 1280x720
Аудиокодек: AAC 2.0
Битрейт аудио: 126 kbps (CBR), 2 Ch, 44100 Hz
Описание:
Как за 7 дней научиться создавать реалистичные изображения домов и интерьеров.

Дополнительная информация:

Содержание:
МОДУЛЬ 1
Урок 1. Интерфейс 3D моделирования в AutoCAD
Урок 2. 3D примитивы (тела)
Урок 3. Инструменты редактирования 3D тел
Урок 4. Инструменты редактирования 3D тел
Урок 5. 2D примитивы в 3D пространстве
Урок 6.Системы координат. ПСК, ДПСК, МСК в AutoCAD 3D
Урок 7.Виды и визуальные стили
Урок 8.Работа со слоями
Урок 9.Фаски и сопряжения
МОДУЛЬ 2. Приемы и практика моделирования
Урок 10.Моделирование дверного ключа.
Урок 11.Создание круговых тел (Балясины, поручни, стояки).
Урок 12.Создание 3D модели кухонного стола
МОДУЛЬ 3. Поверхностное моделирование
Урок 13.Поверхности.
Урок 14.Сложные поверхности.
Урок 15.Редактирование поверхностей.
Урок 16.Практика. Моделирование раковины с помощью поверхностей
МОДУЛЬ 4. Визуализация
Урок 17.Материалы
Урок 18.Освещение
Урок 19.Камеры
Урок 20.Тени
Урок 21.Настройки визуализации
МОДУЛЬ 5. Практика сложных моделей
Урок 22.Моделирование помещения
Урок 23.Окна, проемы, крыша
Урок 24.Создание крыши
Урок 25.Дополнительные элементы
Урок 26.Визуализация
МОДУЛЬ 6.
Урок 27.Моделирование 3D болта
Урок 28.Моделирование штангельциркуля. Часть 1.
Бонусы:
-5 способов заработка на компьютерной графике
-Модуль СПДС. Как избавить себя от рутины
-Создание и использование динамических блоков
-Построение карты местности в AutoCAD

MediaInfo:

Общее
Формат : MPEG-4
Профиль формата : Base Media / Version 2
Идентификатор кодека : mp42
Размер файла : 30,1 Мбайт
Режим общего битрейта : Переменный
Общий поток : 345 Кбит/сек
Видео
Идентификатор : 1
Формат : AVC
Формат/Информация : Advanced Video Codec
Профиль формата : [email protected]
Параметр CABAC формата : Да
Параметр ReFrames формата : 3 кадра
Идентификатор кодека : avc1
Идентификатор кодека/Информация : Advanced Video Coding
Битрейт : 217 Кбит/сек
Ширина : 1280 пикселей
Высота : 720 пикселей
Соотношение сторон : 16:9
Режим частоты кадров : Переменный
Частота кадров : 30,000 кадров/сек
Минимальная частота кадров : 30,000 кадров/сек
Максимальная частота кадров : 30,030 кадров/сек
Стандарт вещания : NTSC
Цветовое пространство : YUV
Субдискретизация насыщенности : 4:2:0
Битовая глубина : 8 бит
Тип развёртки : Прогрессивная
Бит/(Пиксели*Кадры) : 0.008
Размер потока : 18,9 Мбайт (63%)
Размер потока оригинала : 18,9 Мбайт (63%)
Аудио
Идентификатор : 2
Формат : AAC
Формат/Информация : Advanced Audio Codec
Профиль формата : LC
Идентификатор кодека : 40
Вид битрейта : Переменный
Битрейт : 126 Кбит/сек
Максимальный битрейт : 166 Кбит/сек
Каналы : 2 канала
Расположение каналов : Front: L R
Частота : 44,1 КГц
Метод сжатия : С потерями
Размер потока : 11,0 Мбайт (36%)
Размер потока оригинала : 11,0 Мбайт (36%)
Скриншоты:

[Цитировать]



Показать сообщения:    

Текущее время: 04-Дек 15:19

Часовой пояс: UTC + 3


Вы не можете начинать темы
Вы не можете отвечать на сообщения
Вы не можете редактировать свои сообщения
Вы не можете удалять свои сообщения
Вы не можете голосовать в опросах
Вы не можете прикреплять файлы к сообщениям
Вы не можете скачивать файлы

!ВНИМАНИЕ!
Сайт не предоставляет электронные версии произведений, а занимается лишь коллекционированием и каталогизацией ссылок, присылаемых и публикуемых на форуме нашими читателями. Если вы являетесь правообладателем какого-либо представленного материала и не желаете, чтобы ссылка на него находилась в нашем каталоге, свяжитесь с нами, и мы незамедлительно удалим ее. Файлы для обмена на трекере предоставлены пользователями сайта, и администрация не несет ответственности за их содержание. Просьба не заливать файлы, защищенные авторскими правами, а также файлы нелегального содержания!