[ Сегодня идет свободное скачивание без начисления Download ]


Статистика раздачи
Качаю: [ 1 ]
 
   
 
Top  
 
 
Лестница в небеса (2013) WEB-DLRip 720p - Производство: Россия / "Дуэт"
Жанр: драма
Режиссер: Григорий Любомиров
Актеры: Микаэл Арамян, Вера Житницкая, Нил Кропалов, Екатерина Симаходская, Янина Соколовская, Александр Песков, Оксана Дорохина, Михаил Полосухин, Игорь Карташёв, Дмитрий Сотириади, Дэни Аласания, Ольга Баранова, Максим Бычков, Вероника Амирханова, Артём Мурадов и др.
Описание:
История любви современных Ромео и Джульетты. Вот уже 10 лет, как Артем приходит на берег моря и вспоминает историю своей первой любви. Аня, так зовут девочку, с которой прошло детство Артема. Их детская дружба переросла в чистую юношескую любовь. Любовь сильную и светлую, сошедшую с небес… Окружающие - жадные, завистливые и злые люди не поняли глубины их чувств, потому, что были слишком земные ... И они сделали все, чтобы эта любовь не выжила на Земле Но Небеса, подарившие им эту любовь, приняли ее в свои объятия… В детстве Артем обещал Анне построить Лестницу в небеса и выполнил свое обещание… Детская дружба была очень крепкой. Они почти не расставались. и им было хорошо вдвоем. А потом пришла беда… Сначала умерла мама Ани. Потом в автокатастрофе погиб отец Артема. Горе детей было велико и сблизило их еще больше… Время шло - они взрослели… Дружба стала перерастать в первое чувство… они готовы были провести всю жизнь на любимом берегу их детства, но у жизни на них были свои планы… Артем из очень богатой семьи. Единственный наследник крупного фамильного бизнеса. После гибели отца, холдингом, временно руководит его мать - Ирина, пока Артем достигнет совершеннолетия, получит соответствующее образование и сможет принять управление компанией. Отец Ани, Кирилл - известный архитектор, вдовец и завидный жених и в их жизни не могла не появиться мачеха. И она появилась. Авдотья Макарова, известная актриса, красивая и статная женщина, быстро вскружила голову одинокому Кириллу и стала его женой. Она вошла в их дом и детство Ани закончилось. Кирилл был влюблен как мальчишка и Авдотья, быстро освоившись, легко управляла и им и домом. Вместе с ней в доме появились ее дети-подростки, которых, экзальтированная мать назвала Тристаном и Изольдой. У Ани началась другая жизнь…
Продолжительность: ~00:55:00 серия
Качество видео: WEB-DLRip
Видео: AVC/H.264, 1280x720 (16:9), ~1800 Kbps
Аудио: AC3, 2 ch, 192 Kbps, CBR

MediaInfo:

Общее
Уникальный идентификатор                 : 239433994342819832909100033761499815998 (0xB4214F58498FDF53838E14287CD2203E)
Полное имя                               : F:\DOWNLOADS\Лестница в небеса (2013) WEB-DLRip 720\Лестница в небеса - 01 серия.mkv
Формат                                   : Matroska
Версия формата                           : Version 2
Размер файла                             : 772 Мбайт
Продолжительность                        : 54 м.
Режим общего битрейта                    : Переменный
Общий поток                              : 1990 Кбит/сек
Дата кодирования                         : UTC 2016-03-07 07:00:01
Программа кодирования                    : mkvmerge v7.8.0 ('River Man') 32bit built on Apr  3 2015 12:11:22
Библиотека кодирования                   : libebml v1.3.1 + libmatroska v1.4.2
Видео
Идентификатор                            : 1
Формат                                   : AVC
Формат/Информация                        : Advanced Video Codec
Профиль формата                          : High@L4.1
Параметр CABAC формата                   : Да
Параметр ReFrames формата                : 3 кадра
Идентификатор кодека                     : V_MPEG4/ISO/AVC
Продолжительность                        : 54 м.
Вид битрейта                             : Переменный
Битрейт                                  : 1800 Кбит/сек
Максимальный битрейт                     : 40,0 Мбит/сек
Ширина                                   : 1280 пикселей
Высота                                   : 720 пикселей
Соотношение сторон                       : 16:9
Режим частоты кадров                     : Постоянный
Частота кадров                           : 25,000 кадров/сек
Цветовое пространство                    : YUV
Субдискретизация насыщенности            : 4:2:0
Битовая глубина                          : 8 бит
Тип развёртки                            : Прогрессивная
Бит/(Пиксели*Кадры)                      : 0.078
Размер потока                            : 682 Мбайт (88%)
Библиотека кодирования                   : x264 core 142 r2389 956c8d8
Настройки программы                      : cabac=1 / ref=3 / deblock=1:0:0 / analyse=0x3:0x133 / me=umh / subme=7 / psy=1 / psy_rd=1.00:0.00 / mixed_ref=1 / me_range=32 / chroma_me=1 / trellis=2 / 8x8dct=1 / cqm=0 / deadzone=21,11 / fast_pskip=1 / chroma_qp_offset=-2 / threads=12 / lookahead_threads=2 / sliced_threads=0 / nr=0 / decimate=1 / interlaced=0 / bluray_compat=0 / constrained_intra=0 / bframes=0 / weightp=0 / keyint=75 / keyint_min=26 / scenecut=40 / intra_refresh=0 / rc_lookahead=50 / rc=2pass / mbtree=0 / bitrate=1800 / ratetol=1.0 / qcomp=0.20 / qpmin=10 / qpmax=51 / qpstep=4 / cplxblur=20.0 / qblur=0.5 / vbv_maxrate=2000 / vbv_bufsize=2000 / nal_hrd=none / filler=0 / ip_ratio=1.40 / aq=1:1.0
Default                                  : Да
Forced                                   : Нет
Цветовой диапазон                        : Limited
Основные цвета                           : BT.709
Характеристики трансфера                 : BT.709
Коэффициенты матрицы                     : BT.709
Аудио
Идентификатор                            : 2
Формат                                   : AC-3
Формат/Информация                        : Audio Coding 3
Расширение режима                        : CM (complete main)
Параметр Endianness формата              : Big
Идентификатор кодека                     : A_AC3
Продолжительность                        : 54 м.
Вид битрейта                             : Постоянный
Битрейт                                  : 192 Кбит/сек
Каналы                                   : 2 канала
Расположение каналов                     : Front: L R
Частота                                  : 44,1 КГц
Метод сжатия                             : С потерями
Размер потока                            : 74,5 Мбайт (10%)
Default                                  : Да
Forced                                   : Нет
Скриншоты:

[Цитировать]



Показать сообщения:    

Текущее время: 08-Дек 03:12

Часовой пояс: UTC + 3


Вы не можете начинать темы
Вы не можете отвечать на сообщения
Вы не можете редактировать свои сообщения
Вы не можете удалять свои сообщения
Вы не можете голосовать в опросах
Вы не можете прикреплять файлы к сообщениям
Вы не можете скачивать файлы

!ВНИМАНИЕ!
Сайт не предоставляет электронные версии произведений, а занимается лишь коллекционированием и каталогизацией ссылок, присылаемых и публикуемых на форуме нашими читателями. Если вы являетесь правообладателем какого-либо представленного материала и не желаете, чтобы ссылка на него находилась в нашем каталоге, свяжитесь с нами, и мы незамедлительно удалим ее. Файлы для обмена на трекере предоставлены пользователями сайта, и администрация не несет ответственности за их содержание. Просьба не заливать файлы, защищенные авторскими правами, а также файлы нелегального содержания!