[ Сегодня идет свободное скачивание без начисления Download ]


Статистика раздачи
Нет
 
   
 
Top  
 
 
Суперсемейка / The Incredibles (2004) BDRip 720p | 60 fps Название: Суперсемейка
Оригинальное название: The Incredibles
Год выпуска: 2004
Страна: США
Жанр: мультфильм, боевик, приключения, семейный
Продолжительность: 01:55:25
Перевод: Dub, MVO, AVO, Original
Субтитры: русские (Форсированные), русские (Полные), русские (Полные Goblin), английские (Полные), русские (Полные Commentary 1), русские (Полные Commentary 2)
Режиссер: Брэд Бёрд
В ролях: Крэйг Т. Нельсон (Bob Parr / Mr. Incredible, озвучка), Холли Хантер (Helen Parr / Elastigirl, озвучка), Сэмюэл Л. Джексон (Lucius Best / Frozone, озвучка), Джейсон Ли (Syndrome, озвучка), Доминик Луи (Bomb Voyage, озвучка), Тедди Ньютон (Newsreel рассказчик, озвучка), Джин Синсере (Mrs. Hogenson, озвучка), Илай Фучиле (Jack Jack Parr, озвучка), Маив Эндрюс (Jack Jack Parr, озвучка), Уоллес Шоун (Gilbert Huph, озвучка), Спенсер Фокс (Dashiell «Dash» Parr, озвучка), Лу Романо (Bernie Kropp, озвучка)
Описание:
История семьи супергероев, члены которой уже отошли от больших дел и предпочитают жить непримечательной жизнью обычных землян. В прошлом все они обладали сверхъестественными способностями и относительно легко справлялись с мировым злом.
Но в один прекрасный день папаше и его домочадцам приходится вновь облачиться в прорезиненные костюмы супергероев (а для этого нужно срочно сбросить лишние килограммы!) и в очередной раз спасти человечество от таинственного злодея...
Рейтинг:

MPAA: PG - Рекомендуется присутствие родителей
Качество: BDRip 720p 60fps
Формат: MKV
Видео: AVC, 1280x528 (2.40:1), 6000 kbps, 60 fps, 0,148 bpp
Аудио 1: русский / AC3 / 5.1 / 48 kHz / 640 kbps / 16 bit
Аудио 2: русский / AC3 / 5.1 / 48 kHz / 640 kbps / 16 bit |MVO Tycoon (Отдельно в папке)|
Аудио 3: русский / AC3 / 5.1 / 48 kHz / 640 kbps / 16 bit |AVO Goblin (Отдельно в папке)|
Аудио 4: английский / AC3 / 5.1 / 48 kHz / 640 kbps / 16 bit |Original (Отдельно в папке)|
Аудио 5: английский / AC3 / 2.0 / 48 kHz / 160 kbps / 16 bit |Commentary 1 (Отдельно в папке)|
Аудио 6: английский / AC3 / 2.0 / 48 kHz / 160 kbps / 16 bit |Commentary 2 (Отдельно в папке)|
Навигация по главам: есть

ОтчетМедиаИнфо

General
Unique ID : 175044500125809583816057226186383810420 (0x83B0582D2BD9B39192FEB1096D61DF74)
Format : Matroska
Format version : Version 4 / Version 2
File size : 5.35 GiB
Duration : 1h 55mn
Overall bit rate : 6 640 Kbps
Movie name : Tiberiumsun69
Encoded date : UTC 2016-03-08 06:06:26
Writing application : mkvmerge v8.3.0 ('Over the Horizon') 64bit
Writing library : libebml v1.3.1 + libmatroska v1.4.2
Attachment : Yes
Video
ID : 1
Format : AVC
Format/Info : Advanced Video Codec
Format profile : High@L4.1
Format settings, CABAC : Yes
Format settings, ReFrames : 9 frames
Codec ID : V_MPEG4/ISO/AVC
Duration : 1h 55mn
Bit rate : 6 000 Kbps
Width : 1 280 pixels
Height : 528 pixels
Display aspect ratio : 2.40:1
Frame rate : 60.000 fps
Color space : YUV
Chroma subsampling : 4:2:0
Bit depth : 8 bits
Scan type : Progressive
Bits/(Pixel*Frame) : 0.148
Stream size : 4.73 GiB (88%)
Title : Tiberiumsun69
Writing library : x264 core 146 r2538 121396c
Encoding settings : cabac=1 / ref=9 / deblock=1:0:0 / analyse=0x3:0x113 / me=umh / subme=9 / psy=1 / psy_rd=1.00:0.10 / mixed_ref=1 / me_range=32 / chroma_me=1 / trellis=2 / 8x8dct=1 / cqm=0 / deadzone=21,11 / fast_pskip=0 / chroma_qp_offset=-3 / threads=12 / lookahead_threads=3 / sliced_threads=0 / nr=0 / decimate=1 / interlaced=0 / bluray_compat=0 / constrained_intra=0 / bframes=16 / b_pyramid=2 / b_adapt=2 / b_bias=0 / direct=3 / weightb=1 / open_gop=0 / weightp=2 / keyint=250 / keyint_min=25 / scenecut=40 / intra_refresh=0 / rc_lookahead=40 / rc=2pass / mbtree=0 / bitrate=6000 / ratetol=1.0 / qcomp=0.60 / qpmin=0 / qpmax=69 / qpstep=4 / cplxblur=20.0 / qblur=0.5 / vbv_maxrate=14000 / vbv_bufsize=14000 / nal_hrd=none / filler=0 / ip_ratio=1.40 / pb_ratio=1.30 / aq=1:1.00
Language : English
Default : Yes
Forced : No
Audio
ID : 2
Format : AC-3
Format/Info : Audio Coding 3
Mode extension : CM (complete main)
Codec ID : A_AC3
Duration : 1h 55mn
Bit rate mode : Constant
Bit rate : 640 Kbps
Channel(s) : 6 channels
Channel positions : Front: L C R, Side: L R, LFE
Sampling rate : 48.0 KHz
Bit depth : 16 bits
Compression mode : Lossy
Stream size : 528 MiB (10%)
Title : Дубляж
Language : Russian
Default : Yes
Forced : No
Text #1
ID : 3
Format : UTF-8
Codec ID : S_TEXT/UTF8
Codec ID/Info : UTF-8 Plain Text
Title : Форсированные
Language : Russian
Default : Yes
Forced : No
Text #2
ID : 4
Format : UTF-8
Codec ID : S_TEXT/UTF8
Codec ID/Info : UTF-8 Plain Text
Title : Полные
Language : Russian
Default : No
Forced : No
Text #3
ID : 5
Format : UTF-8
Codec ID : S_TEXT/UTF8
Codec ID/Info : UTF-8 Plain Text
Title : Полные Goblin
Language : Russian
Default : No
Forced : No
Text #4
ID : 6
Format : UTF-8
Codec ID : S_TEXT/UTF8
Codec ID/Info : UTF-8 Plain Text
Title : Полные
Language : English
Default : No
Forced : No
Text #5
ID : 7
Format : UTF-8
Codec ID : S_TEXT/UTF8
Codec ID/Info : UTF-8 Plain Text
Title : Полные Commentary 1
Language : Russian
Default : No
Forced : No
Text #6
ID : 8
Format : UTF-8
Codec ID : S_TEXT/UTF8
Codec ID/Info : UTF-8 Plain Text
Title : Полные Commentary 2
Language : Russian
Default : No
Forced : No
Menu
00:00:00.000 : en:1. Golden Age
00:09:14.554 : en:2. Weddings & Lawsuits
00:11:32.734 : en:3. 15 Years & 50 Pounds Later
00:13:31.352 : en:4. After School
00:17:08.527 : en:5. Family Dinner
00:20:44.910 : en:6. 2 Ex-Supers
00:26:53.529 : en:7. A Super Defeated
00:30:42.215 : en:8. Help Wanted
00:34:54.592 : en:9. Nomanisan
00:41:27.235 : en:10. New & Improved
00:46:01.675 : en:11. Helen Suspects
00:48:54.515 : en:12. Helen & E
00:50:02.124 : en:13. An Important Meeting
00:54:01.780 : en:14. E's Lab
00:57:09.551 : en:15. Secrets Revealed
01:00:35.799 : en:16. Suiting Up
01:05:04.859 : en:17. Missile Lock
01:10:53.708 : en:18. Out To Sea
01:12:57.915 : en:19. Good Guys/Bad Guys
01:16:27.583 : en:20. Elastigirl Returns
01:19:19.213 : en:21. Caves & Rockets
01:21:13.911 : en:22. Lost & Found
01:23:59.659 : en:23. 100 Mile Dash
01:27:05.637 : en:24. Reunited
01:30:29.841 : en:25. Bob's Confession
01:32:47.395 : en:26. Frozone & Honey
01:33:33.024 : en:27. Omnidroid Attacks
01:34:30.540 : en:28. Road Trip
01:37:03.151 : en:29. The Incredibles vs. The Omnidroid
01:41:58.070 : en:30. Past vs. Future
01:45:40.000 : en:31. Happy Endings
01:47:33.322 : en:32. End Credits
Авторство группы

[Цитировать]



Показать сообщения:    

Текущее время: 11-Дек 12:57

Часовой пояс: UTC + 3


Вы не можете начинать темы
Вы не можете отвечать на сообщения
Вы не можете редактировать свои сообщения
Вы не можете удалять свои сообщения
Вы не можете голосовать в опросах
Вы не можете прикреплять файлы к сообщениям
Вы не можете скачивать файлы

!ВНИМАНИЕ!
Сайт не предоставляет электронные версии произведений, а занимается лишь коллекционированием и каталогизацией ссылок, присылаемых и публикуемых на форуме нашими читателями. Если вы являетесь правообладателем какого-либо представленного материала и не желаете, чтобы ссылка на него находилась в нашем каталоге, свяжитесь с нами, и мы незамедлительно удалим ее. Файлы для обмена на трекере предоставлены пользователями сайта, и администрация не несет ответственности за их содержание. Просьба не заливать файлы, защищенные авторскими правами, а также файлы нелегального содержания!