[ Сегодня идет свободное скачивание без начисления Download ]


Статистика раздачи
Нет
 
   
 
Top  
 
 
Тренировочный день / Training Day (2001) BDRip 1080p Информация о фильме
Название: Тренировочный день
Оригинальное название: Training Day
Год выпуска: 2001
Страна: США, Австралия
Жанр: триллер, драма, криминал-Перевод: Дубляж, Профессиональный (многоголосый), Авторский (одноголосый)
Примечание: в переводах Визгунова, Завгороднего (аудио № 6 и № 7) присутствует ненормативная лексика
Субтитры: русские (Full), английские (Full)
Продолжительность: 02:02:02-Режиссер: Антуан Фукуа
В ролях: Дензел Вашингтон (Det. Alonzo Harris), Итан Хоук (Jake Hoyt), Скотт Гленн (Roger), Харрис Юлин (Doug Rosselli), Том Беренджер (Stan Gursky), Рэймонд Дж. Бэрри (Lou Jacobs), Клифф Кёртис (Smiley), Др. Дре (Paul), Снуп Догг (Blue), Ева Мендес (Sara), Мейси Грэй (Sandman's Wife), Ник Чинланд (Tim)-Описание:
Фильм посвящен событиям, приключившимся в первый день работы новичка-полицейского Джейка Хойта, поступившего на работу в полицию Лос-Анджелеса, а конкретно - в отдел по борьбе с наркотиками. Ему, как это всегда бывает, попался многоопытный партнер - Алонзо, коррумпированный полицейский-ветеран.
Американцам уже не привыкать к тому, что на улицах их страны ведется каждодневная война между наркодилерами и полицией. Алонзо давно усвоил тот факт, что законными методами с этим злом бороться бесполезно, а потому он выработал некую философию, балансирующую на грани добра и зла.-Рейтинг:

MPAA: R - Лицам до 17 лет обязательно присутствие взрослого-Качество: BDRip 1080p
Формат: MKV
Видео: AVC, 1920x816 (2.35:1), 11500 kbps, 23,976 fps, 0,306 bpp
Аудио №1: русский / AC3 / 5.1 / 48 kHz / 384 kbps / 16 bit |Дубляж|
Аудио №2: русский / AC3 / 5.1 / 48 kHz / 384 kbps / 16 bit |MVO Карусель|
Аудио №3: украинский / AC3 / 5.1 / 48 kHz / 384 kbps / 16 bit |MVO Tak Treba - Inter|
Аудио №4: русский / AC3 / 5.1 / 48 kHz / 384 kbps / 16 bit |AVO Живов|
Аудио №5: русский / AC3 / 5.1 / 48 kHz / 640 kbps / 16 bit |AVO Гаврилов|
Аудио №6: русский / AC3 / 5.1 / 48 kHz / 640 kbps / 16 bit |AVO Визгунов|
Аудио №7: русский / AC3 / 5.1 / 48 kHz / 640 kbps / 16 bit |AVO Завгородний|
Аудио №8: английский / AC3 / 5.1 / 48 kHz / 640 kbps / 16 bit |Оригинал|
Навигация по главам: есть
Семпл-

ОтчетМедиаИнфо

General
Unique ID : 177296360934942334098401157153904833652 (0x8562097C78F4494E93AA9AE3C0A2B474)
Complete name : H:Training Day.2001.BDRip.1080p.mkv
Format : Matroska
Format version : Version 4 / Version 2
File size : 13.3 GiB
Duration : 2h 2mn
Overall bit rate : 15.6 Mbps
Movie name : Training Day (2001) BDRip 1080p
Encoded date : UTC 2015-06-13 17:18:03
Writing application : mkvmerge v7.9.0 ('Birds') 64bit
Writing library : libebml v1.3.1 + libmatroska v1.4.2
Attachment : Yes
Video
ID : 1
Format : AVC
Format/Info : Advanced Video Codec
Format profile : High@L4.1
Format settings, CABAC : Yes
Format settings, ReFrames : 5 frames
Codec ID : V_MPEG4/ISO/AVC
Duration : 2h 2mn
Bit rate : 11.5 Mbps
Width : 1 920 pixels
Height : 816 pixels
Display aspect ratio : 2.35:1
Frame rate : 23.976 fps
Color space : YUV
Chroma subsampling : 4:2:0
Bit depth : 8 bits
Scan type : Progressive
Bits/(Pixel*Frame) : 0.306
Stream size : 9.54 GiB (72%)
Writing library : x264 core 146 r2538 121396c
Encoding settings : cabac=1 / ref=5 / deblock=1:-3:-3 / analyse=0x3:0x113 / me=umh / subme=11 / psy=1 / psy_rd=1.00:0.10 / mixed_ref=1 / me_range=32 / chroma_me=1 / trellis=2 / 8x8dct=1 / cqm=0 / deadzone=21,11 / fast_pskip=0 / chroma_qp_offset=-3 / threads=6 / lookahead_threads=1 / sliced_threads=0 / nr=0 / decimate=1 / interlaced=0 / bluray_compat=0 / constrained_intra=0 / bframes=8 / b_pyramid=2 / b_adapt=2 / b_bias=0 / direct=3 / weightb=1 / open_gop=0 / weightp=2 / keyint=240 / keyint_min=23 / scenecut=40 / intra_refresh=0 / rc=2pass / mbtree=0 / bitrate=11500 / ratetol=1.0 / qcomp=0.60 / qpmin=0 / qpmax=69 / qpstep=4 / cplxblur=20.0 / qblur=0.5 / ip_ratio=1.40 / pb_ratio=1.30 / aq=1:1.00
Language : English
Default : Yes
Forced : No
Audio #1
ID : 2
Format : AC-3
Format/Info : Audio Coding 3
Mode extension : CM (complete main)
Codec ID : A_AC3
Duration : 2h 2mn
Bit rate mode : Constant
Bit rate : 384 Kbps
Channel(s) : 6 channels
Channel positions : Front: L C R, Side: L R, LFE
Sampling rate : 48.0 KHz
Bit depth : 16 bits
Compression mode : Lossy
Stream size : 335 MiB (2%)
Title : DUB
Language : Russian
Default : Yes
Forced : No
Audio #2
ID : 3
Format : AC-3
Format/Info : Audio Coding 3
Mode extension : CM (complete main)
Codec ID : A_AC3
Duration : 2h 2mn
Bit rate mode : Constant
Bit rate : 384 Kbps
Channel(s) : 6 channels
Channel positions : Front: L C R, Side: L R, LFE
Sampling rate : 48.0 KHz
Bit depth : 16 bits
Compression mode : Lossy
Stream size : 335 MiB (2%)
Title : MVO Karusel
Language : Russian
Default : No
Forced : No
Audio #3
ID : 4
Format : AC-3
Format/Info : Audio Coding 3
Mode extension : CM (complete main)
Codec ID : A_AC3
Duration : 2h 2mn
Bit rate mode : Constant
Bit rate : 384 Kbps
Channel(s) : 6 channels
Channel positions : Front: L C R, Side: L R, LFE
Sampling rate : 48.0 KHz
Bit depth : 16 bits
Compression mode : Lossy
Stream size : 335 MiB (2%)
Title : MVO Tak Treba-INTER
Language : Ukrainian
Default : No
Forced : No
Audio #4
ID : 5
Format : AC-3
Format/Info : Audio Coding 3
Mode extension : CM (complete main)
Codec ID : A_AC3
Duration : 2h 2mn
Bit rate mode : Constant
Bit rate : 384 Kbps
Channel(s) : 6 channels
Channel positions : Front: L C R, Side: L R, LFE
Sampling rate : 48.0 KHz
Bit depth : 16 bits
Compression mode : Lossy
Stream size : 335 MiB (2%)
Title : AVO Zhivov
Language : Russian
Default : No
Forced : No
Audio #5
ID : 6
Format : AC-3
Format/Info : Audio Coding 3
Mode extension : CM (complete main)
Codec ID : A_AC3
Duration : 2h 2mn
Bit rate mode : Constant
Bit rate : 640 Kbps
Channel(s) : 6 channels
Channel positions : Front: L C R, Side: L R, LFE
Sampling rate : 48.0 KHz
Bit depth : 16 bits
Compression mode : Lossy
Stream size : 559 MiB (4%)
Title : AVO Gavrilov
Language : Russian
Default : No
Forced : No
Audio #6
ID : 7
Format : AC-3
Format/Info : Audio Coding 3
Mode extension : CM (complete main)
Codec ID : A_AC3
Duration : 2h 2mn
Bit rate mode : Constant
Bit rate : 640 Kbps
Channel(s) : 6 channels
Channel positions : Front: L C R, Side: L R, LFE
Sampling rate : 48.0 KHz
Bit depth : 16 bits
Compression mode : Lossy
Stream size : 559 MiB (4%)
Title : AVO Vizgunov
Language : Russian
Default : No
Forced : No
Audio #7
ID : 8
Format : AC-3
Format/Info : Audio Coding 3
Mode extension : CM (complete main)
Codec ID : A_AC3
Duration : 2h 2mn
Bit rate mode : Constant
Bit rate : 640 Kbps
Channel(s) : 6 channels
Channel positions : Front: L C R, Side: L R, LFE
Sampling rate : 48.0 KHz
Bit depth : 16 bits
Compression mode : Lossy
Stream size : 559 MiB (4%)
Title : AVO Zavgorodnij
Language : Russian
Default : No
Forced : No
Audio #8
ID : 9
Format : AC-3
Format/Info : Audio Coding 3
Mode extension : CM (complete main)
Codec ID : A_AC3
Duration : 2h 2mn
Bit rate mode : Constant
Bit rate : 640 Kbps
Channel(s) : 6 channels
Channel positions : Front: L C R, Side: L R, LFE
Sampling rate : 48.0 KHz
Bit depth : 16 bits
Compression mode : Lossy
Stream size : 559 MiB (4%)
Title : Original
Language : English
Default : No
Forced : No
Text #1
ID : 10
Format : UTF-8
Codec ID : S_TEXT/UTF8
Codec ID/Info : UTF-8 Plain Text
Title : Full
Language : Russian
Default : No
Forced : No
Text #2
ID : 11
Format : UTF-8
Codec ID : S_TEXT/UTF8
Codec ID/Info : UTF-8 Plain Text
Title : Full
Language : English
Default : No
Forced : No
Menu
00:00:00.000 : en:It's Today
00:03:53.524 : en:Tell Me A Story
00:08:02.356 : en:Leave Family Out
00:12:20.072 : en:Drug Roust
00:15:37.394 : en:Narcotics In His Blood
00:20:35.943 : en:Joking With Roger
00:25:42.290 : en:Alley Incident
00:32:13.932 : en:It Takes A Wolf
00:36:12.670 : en:Collaring Sammy
00:40:41.063 : en:Sandman's Wife
00:45:20.467 : en:Firing Line
00:47:15.207 : en:Wolf Or Sheep?
00:49:24.002 : en:Mother And Son
00:55:04.259 : en:LAPD's Finest
00:59:59.762 : en:The Unit Punches In
01:02:56.272 : en:Roger Out Of His Misery
01:09:56.859 : en:The Scenario
01:15:08.253 : en:This Is The Game
01:20:29.699 : en:Five-Card Draw
01:24:17.385 : en:The Drop On The Cop
01:29:26.277 : en:Smiley's Cousin
01:33:27.601 : en:"I'm Here For Alonzo"
01:37:21.335 : en:Preserving Life
01:41:25.579 : en:Rooftop Battle
01:45:00.210 : en:What Jake Learned Today
01:48:44.184 : en:"You Can't Kill Me"
01:52:39.961 : en:Going Home
01:55:43.144 : en:End Credits

Скриншоты

[Цитировать]



Показать сообщения:    

Текущее время: 07-Дек 19:27

Часовой пояс: UTC + 3


Вы не можете начинать темы
Вы не можете отвечать на сообщения
Вы не можете редактировать свои сообщения
Вы не можете удалять свои сообщения
Вы не можете голосовать в опросах
Вы не можете прикреплять файлы к сообщениям
Вы не можете скачивать файлы

!ВНИМАНИЕ!
Сайт не предоставляет электронные версии произведений, а занимается лишь коллекционированием и каталогизацией ссылок, присылаемых и публикуемых на форуме нашими читателями. Если вы являетесь правообладателем какого-либо представленного материала и не желаете, чтобы ссылка на него находилась в нашем каталоге, свяжитесь с нами, и мы незамедлительно удалим ее. Файлы для обмена на трекере предоставлены пользователями сайта, и администрация не несет ответственности за их содержание. Просьба не заливать файлы, защищенные авторскими правами, а также файлы нелегального содержания!