[ Сегодня идет свободное скачивание без начисления Download ]


Статистика раздачи
Нет
 
   
 
Top  
 
 
Тимур и его команда (1976) Информация о фильме
Название: Тимур и его команда
Год выхода: 1976
Жанр: Приключения, семейный
Режиссер: Александр Бланк, Сергей Линков
В ролях: Антон Табаков, Инга Третьякова, Вячеслав Баранов, Леонид Куравлёв, Константин Леонов, Дмитрий Пасынков, Лев Идашкин, Владимир Шкаликов, Сергей Молчанов, Дмитрий Мулев, Владимир Дубровин, Людмила Мухина, Людмила Гаврилова, Николай Гринько, Бруно Фрейндлих, Татьяна Фёдорова, Александра Денисова, Сергей Массарский, Генрих Осташевский, Маргарита Пресич, Любовь Соколова, Александр Бордуков, Юрий Воробьёв, Елена Бромлей, Владимир Вихров, Александр Довготько, Владимир Волков, Елизавета Кузюрина
О фильме:
Предвоенные годы. Женя Александрова, дочь красного командира, на даче под Москвой знакомится с Тимуром. Ее сестра Ольга принимает Тимура за хулигана и препятствует дружбе младшей сестры с ним. На самом же деле, Тимур возглавил группу пионеров, которые тайно оказывают помощь семьям красноармейцев. В дачном поселке орудует банда хулиганов, возглавляемая Мишкой Квакиным. Пионеры «воспитывают» хулиганов своими способами — ультиматумами, силой и внушением.
Страна: СССР, Одесская киностудия
Продолжительность: 01:03:15 + 01:03:28
Перевод: не требуется
Файл
Кодек: x264
Качество: SATRip-AVC
Видео: MPEG-4, ~ 2350 Кбит/с, [email protected]/* */
Звук: AC3, 2 ch, 192 Кбит/с

Медиа-Инфо

raw [info]: 720x570p 16:15 @ 25/1 fps (cfr)
x264 [info]: using SAR=16/15
x264 [info]: using cpu capabilities: MMX2 SSE2Fast SSSE3 SSE4.2 AVX
x264 [info]: profile High, level 4.1
x264 [info]: frame I:578 Avg QP:17.43 size: 62848
x264 [info]: frame P:25309 Avg QP:20.03 size: 25467
x264 [info]: frame B:68837 Avg QP:21.88 size: 6416
============================================================================================================
Общее
Уникальный идентификатор : 220760978245710637866364728114594620687 (0xA61504922EA48AD49DDE2D0FF06AA50F)
Полное имя : R:МОИ РИПЫТимур и его команда_1976-SATRip-AVCТимур-1.mkv
Формат : Matroska
Версия формата : Version 2
Размер файла : 1,13 Гбайт
Продолжительность : 1 ч. 3 м.
Общий поток : 2564 Кбит/сек
Дата кодирования : UTC 2016-03-08 18:30:17
Программа кодирования : mkvmerge v5.8.0 ('No Sleep / Pillow') built on Sep 2 2012 15:37:04
Библиотека кодирования : libebml v1.2.3 + libmatroska v1.3.0
Видео
Идентификатор : 1
Формат : AVC
Формат/Информация : Advanced Video Codec
Профиль формата : High@L4.1
Параметр CABAC формата : Да
Параметр ReFrames формата : 14 кадров
Идентификатор кодека : V_MPEG4/ISO/AVC
Продолжительность : 1 ч. 3 м.
Битрейт : 2370 Кбит/сек
Ширина : 720 пикселей
Высота : 570 пикселей
Соотношение сторон : 4:3
Режим частоты кадров : Постоянный
Частота кадров : 25,000 кадров/сек
Цветовое пространство : YUV
Субдискретизация насыщенности : 4:2:0
Битовая глубина : 8 бит
Тип развёртки : Прогрессивная
Бит/(Пиксели*Кадры) : 0.231
Размер потока : 1,02 Гбайт (91%)
Библиотека кодирования : x264 core 148 r2638 7599210
Настройки программы : cabac=1 / ref=14 / deblock=1:-2:-2 / analyse=0x3:0x133 / me=umh / subme=10 / psy=1 / psy_rd=1.05:0.15 / mixed_ref=1 / me_range=32 / chroma_me=1 / trellis=2 / 8x8dct=1 / cqm=0 / deadzone=21,11 / fast_pskip=0 / chroma_qp_offset=-3 / threads=12 / lookahead_threads=3 / sliced_threads=0 / nr=0 / decimate=0 / interlaced=0 / bluray_compat=0 / constrained_intra=0 / bframes=10 / b_pyramid=2 / b_adapt=2 / b_bias=0 / direct=3 / weightb=1 / open_gop=0 / weightp=2 / keyint=250 / keyint_min=25 / scenecut=40 / intra_refresh=0 / rc=2pass / mbtree=0 / bitrate=2370 / ratetol=1.0 / qcomp=0.70 / qpmin=0 / qpmax=39 / qpstep=4 / cplxblur=20.0 / qblur=0.5 / ip_ratio=1.25 / pb_ratio=1.30 / aq=1:1.00
Язык : English
Default : Да
Forced : Нет
Основные цвета : BT.601 PAL
Характеристики трансфера : BT.470 System B, BT.470 System G
Коэффициенты матрицы : BT.601
Аудио
Идентификатор : 2
Формат : AC-3
Формат/Информация : Audio Coding 3
Расширение режима : CM (complete main)
Параметр Endianness формата : Big
Идентификатор кодека : A_AC3
Продолжительность : 1 ч. 3 м.
Вид битрейта : Постоянный
Битрейт : 192 Кбит/сек
Каналы : 2 канала
Расположение каналов : Front: L R
Частота : 48,0 КГц
Битовая глубина : 16 бит
Метод сжатия : С потерями
Задержка видео : 10 мс.
Размер потока : 86,7 Мбайт (7%)
Язык : Russian
Default : Да
Forced : Нет
Релиз от:
Автор релиза:

[Цитировать]



Показать сообщения:    

Текущее время: 23-Май 14:47

Часовой пояс: UTC + 6


Вы не можете начинать темы
Вы не можете отвечать на сообщения
Вы не можете редактировать свои сообщения
Вы не можете удалять свои сообщения
Вы не можете голосовать в опросах
Вы не можете прикреплять файлы к сообщениям
Вы не можете скачивать файлы

!ВНИМАНИЕ!
Сайт не предоставляет электронные версии произведений, а занимается лишь коллекционированием и каталогизацией ссылок, присылаемых и публикуемых на форуме нашими читателями. Если вы являетесь правообладателем какого-либо представленного материала и не желаете, чтобы ссылка на него находилась в нашем каталоге, свяжитесь с нами, и мы незамедлительно удалим ее. Файлы для обмена на трекере предоставлены пользователями сайта, и администрация не несет ответственности за их содержание. Просьба не заливать файлы, защищенные авторскими правами, а также файлы нелегального содержания!