[ Сегодня идет свободное скачивание без начисления Download ]


Статистика раздачи
Нет
 
   
 
Top  
 
 
Ход королевой / Knight Moves (1992) DVDRip-AVC Название: Ход королевой
Оригинальное название: Knight Moves
Год выхода: 1992
Страна: Германия, США, Канада
Студия: Cineplex Odeon Films, Cinevox Filmproduktion GmbH, Ink Slinger Productions
Продолжительность: 01:51:40
Жанр: триллер, драма, детектив, ...
Режиссер: Карл Шенкель
В ролях: Кристофер Ламберт, Дайан Лэйн, Том Скеррит, Дэниэл Болдуин, Коди Лукас Уилби, Джош Мюррэй, Фрэнк С. Тернер, Дон Томпсон, Меган Лейтч, Алекс Дьякун, ...
Перевод:
Профессиональный (дублированный) студия "Синхрон", компания "Хлопушка" г.Киев
Профессиональный (многоголосый, закадровый)
Авторский (одноголосый, закадровый) Володарский Леонид Вениаминович
О фильме: Во время международного шахматного турнира, проводившегося на небольшом острове, кто-то убивает молодых женщин. Подозреваемым становится лидер турнира Питер Сэндерсон. Полиция пытается решить задачу не менее сложную, чем разыгрываемые партии. А убийца тем временем дразнит Сэндерсона, подсовывая с каждой жертвой загадки, которые чемпион должен расшифровать. Удастся ли гроссмейстеру предугадать ходы в этой партии? Ведь каждый неверный ход ведет к новому убийству…

Кодек: x264
Качество: DVDRip-AVC
Видео: 1024x432 , 3000 kbps, 25 fps
Аудио #1: AC-3, 2 ch, 192 kbps (Rus) - Dub студия Синхрон
Аудио #2: AC-3, 2 ch, 192 kbps (Rus) - MVO
Аудио #3: AC-3, 2 ch, 192 kbps (Rus) - AVO Володарский Леонид Вениаминович
Аудио #4: AC-3, 6 ch, 448 kbps (Eng)
Субтитры: Английские

Дополнительная информация

За исходник спасибо - spartac

MI

x264 [info]: frame I:1152 Avg QP:13.84 size: 55662
x264 [info]: frame P:34371 Avg QP:16.21 size: 25224
x264 [info]: frame B:131998 Avg QP:18.18 size: 11981
x264 [info]: consecutive B-frames: 1.5% 1.6% 7.3% 20.4% 14.6% 33.6% 15.5% 3.4% 0.9% 0.8% 0.2% 0.1% 0.1%
Общее
Уникальный идентификатор : 220223243499083493170379447827636870959 (0xA5AD74337A727420BFC047B8FE9EDF2F)
Полное имя : Ход королевой (Knight Moves) 1992 DVDRip.mkv
Формат : Matroska
Версия формата : Version 2
Размер файла : 3,14 Гбайт
Продолжительность : 1 ч. 51 м.
Общий поток : 4026 Кбит/сек
Дата кодирования : UTC 2016-03-10 12:34:44
Программа кодирования : mkvmerge v4.0.0 ('The Stars were mine') сборка от Jun 6 2010 16:18:42
Библиотека кодирования : libebml v1.0.0 + libmatroska v1.0.0
Видео
Идентификатор : 1
Формат : AVC
Формат/Информация : Advanced Video Codec
Профиль формата : [email protected]
Параметр CABAC формата : Да
Параметр ReFrames формата : 9 кадров
Идентификатор кодека : V_MPEG4/ISO/AVC
Продолжительность : 1 ч. 51 м.
Битрейт : 3000 Кбит/сек
Ширина : 1024 пикселя
Высота : 432 пикселя
Соотношение сторон : 2,40:1
Режим частоты кадров : Постоянный
Частота кадров : 25,000 кадров/сек
Цветовое пространство : YUV
Субдискретизация насыщенности : 4:2:0
Битовая глубина : 8 бит
Тип развёртки : Прогрессивная
Бит/(Пиксели*Кадры) : 0.271
Размер потока : 2,28 Гбайт (73%)
Библиотека кодирования : x264 core 146 r2538 121396c
Настройки программы : cabac=1 / ref=9 / deblock=1:-3:-3 / analyse=0x3:0x133 / me=umh / subme=11 / psy=1 / psy_rd=1.00:0.00 / mixed_ref=1 / me_range=32 / chroma_me=1 / trellis=2 / 8x8dct=1 / cqm=0 / deadzone=21,11 / fast_pskip=0 / chroma_qp_offset=-2 / threads=12 / lookahead_threads=2 / sliced_threads=0 / nr=0 / decimate=0 / interlaced=0 / bluray_compat=0 / constrained_intra=0 / bframes=12 / b_pyramid=2 / b_adapt=2 / b_bias=0 / direct=3 / weightb=1 / open_gop=0 / weightp=2 / keyint=250 / keyint_min=25 / scenecut=40 / intra_refresh=0 / rc=2pass / mbtree=0 / bitrate=3000 / ratetol=1.0 / qcomp=0.60 / qpmin=0 / qpmax=69 / qpstep=4 / cplxblur=20.0 / qblur=0.5 / ip_ratio=1.40 / pb_ratio=1.30 / aq=1:0.80
Язык : English
Default : Нет
Forced : Нет
Аудио #1
Идентификатор : 2
Формат : AC-3
Формат/Информация : Audio Coding 3
Расширение режима : CM (complete main)
Параметр Endianness формата : Big
Идентификатор кодека : A_AC3
Продолжительность : 1 ч. 51 м.
Вид битрейта : Постоянный
Битрейт : 192 Кбит/сек
Каналы : 2 канала
Расположение каналов : Front: L R
Частота : 48,0 КГц
Метод сжатия : С потерями
Размер потока : 153 Мбайт (5%)
Заголовок : Dub студия Синхрон компания Хлопушка г.Киев
Язык : Russian
Default : Нет
Forced : Нет
Аудио #2
Идентификатор : 3
Формат : AC-3
Формат/Информация : Audio Coding 3
Расширение режима : CM (complete main)
Параметр Endianness формата : Big
Идентификатор кодека : A_AC3
Продолжительность : 1 ч. 51 м.
Вид битрейта : Постоянный
Битрейт : 192 Кбит/сек
Каналы : 2 канала
Расположение каналов : Front: L R
Частота : 48,0 КГц
Метод сжатия : С потерями
Размер потока : 153 Мбайт (5%)
Заголовок : MVO
Язык : Russian
Default : Нет
Forced : Нет
Аудио #3
Идентификатор : 4
Формат : AC-3
Формат/Информация : Audio Coding 3
Расширение режима : CM (complete main)
Параметр Endianness формата : Big
Идентификатор кодека : A_AC3
Продолжительность : 1 ч. 51 м.
Вид битрейта : Постоянный
Битрейт : 192 Кбит/сек
Каналы : 2 канала
Расположение каналов : Front: L R
Частота : 48,0 КГц
Метод сжатия : С потерями
Размер потока : 153 Мбайт (5%)
Заголовок : AVO Володарский Леонид Вениаминович
Язык : Russian
Default : Нет
Forced : Нет
Аудио #4
Идентификатор : 5
Формат : AC-3
Формат/Информация : Audio Coding 3
Расширение режима : CM (complete main)
Параметр Endianness формата : Big
Идентификатор кодека : A_AC3
Продолжительность : 1 ч. 51 м.
Вид битрейта : Постоянный
Битрейт : 448 Кбит/сек
Каналы : 6 каналов
Расположение каналов : Front: L C R, Side: L R, LFE
Частота : 48,0 КГц
Метод сжатия : С потерями
Размер потока : 358 Мбайт (11%)
Язык : English
Default : Нет
Forced : Нет
Текст
Идентификатор : 6
Формат : UTF-8
Идентификатор кодека : S_TEXT/UTF8
Идентификатор кодека/Информация : UTF-8 Plain Text
Язык : English
Default : Нет
Forced : Нет

Скриншоты


[Цитировать]



Показать сообщения:    

Текущее время: 04-Дек 13:09

Часовой пояс: UTC + 3


Вы не можете начинать темы
Вы не можете отвечать на сообщения
Вы не можете редактировать свои сообщения
Вы не можете удалять свои сообщения
Вы не можете голосовать в опросах
Вы не можете прикреплять файлы к сообщениям
Вы не можете скачивать файлы

!ВНИМАНИЕ!
Сайт не предоставляет электронные версии произведений, а занимается лишь коллекционированием и каталогизацией ссылок, присылаемых и публикуемых на форуме нашими читателями. Если вы являетесь правообладателем какого-либо представленного материала и не желаете, чтобы ссылка на него находилась в нашем каталоге, свяжитесь с нами, и мы незамедлительно удалим ее. Файлы для обмена на трекере предоставлены пользователями сайта, и администрация не несет ответственности за их содержание. Просьба не заливать файлы, защищенные авторскими правами, а также файлы нелегального содержания!