[ Сегодня идет свободное скачивание без начисления Download ]


Статистика раздачи
Нет
 
   
 
Top  
 
 
Телепорт / Jumper«Где угодно. Когда угодно. Мгновенно.»
Год выпуска: 2008
Страна: США, Канада
Производство: 20th Century FOX
Жанр: Фантастика, боевик, триллер, приключения
Режиссер: Даг Лайман
В ролях: Хейден Кристенсен, Сэмюэл Л. Джексон, Дайан Лэйн, Джэми Белл, Рэйчел Билсон, Майкл Рукер, АннаСофия Робб, Макс Тириот, Джесси Джеймс, Том Хульц, Кристен Стюарт, Тедди Данн, Барбара Гаррик, Майкл Уинтер, Массимилиано Паццаглиа, Шоун Робертс, Натали Кокс, Мередит Хендерсон, Дамир Андрей, Тони Нэппо, Джордж Кинг
Перевод: Профессиональный (многоголосый, закадровый)
Субтитры: Отсутствуют
Описание: Подросток из неблагополучного района Дэвид Райс всегда считал себя обычным парнем, пока однажды он не узнал, что он может телепортироваться с места на место. Новые способности открыли перед ним весь мир. Он может побывать в Нью-Йорке и Токио, посетить античные развалины в Риме, увидеть «крышу мира» с горы Эверест, увидеть 20 рассветов и 20 закатов. И все — в один день.
Теперь ему не нужны деньги — он может взять сколько хочет. Однако в один момент он обнаруживает, что стал мишенью. На него, как и на других подобных ему, объявлена охота. На протяжении тысячи лет тайное общество стремится уничтожить их. Вскоре Дэвид узнает истинную ценность его новых способностей

Рейтинг Кинопоиск: 7.072 48 620
Рейтинг IMDB: 5.90 (140 655)
Качество: DVDRip
Продолжительность: 01:24:45
Формат: AVI
Видео кодек: DivX
Аудио кодек: MP3
Видео: 640x256 (2.50:1), 25 fps, DivX Codec 5.05 ~1046 kbps avg, 0.26 bit/pixel
Аудио: 44.100 kHz, MPEG Layer 3, 2 ch, ~96.00 kbps avg
Премьера (мир): 6 февраля 2008
Премьера (РФ): 14 февраля 2008

Media Info

General
Complete name                            : D:\Фильмы\jumper.avi
Format                                   : AVI
Format/Info                              : Audio Video Interleave
File size                                : 698 MiB
Duration                                 : 1h 24mn
Overall bit rate                         : 1 152 Kbps
Writing application                      : VirtualDubMod 1.5.1.1a (build 1639/release)
Writing library                          : VirtualDubMod build 1639/release
Video
ID                                       : 0
Format                                   : MPEG-4 Visual
Format settings, BVOP                    : 1
Format settings, QPel                    : No
Format settings, GMC                     : 2 warppoints
Format settings, Matrix                  : Default (H.263)
Muxing mode                              : Packed bitstream
Codec ID                                 : DX50
Codec ID/Hint                            : DivX 5
Duration                                 : 1h 24mn
Bit rate                                 : 1 046 Kbps
Width                                    : 640 pixels
Height                                   : 256 pixels
Display aspect ratio                     : 2.500
Frame rate                               : 25.000 fps
Color space                              : YUV
Chroma subsampling                       : 4:2:0
Bit depth                                : 8 bits
Scan type                                : Progressive
Compression mode                         : Lossy
Bits/(Pixel*Frame)                       : 0.255
Stream size                              : 634 MiB (91%)
Writing library                          : DivX 5.0.5 (UTC 2003-04-24)
Audio
ID                                       : 1
Format                                   : MPEG Audio
Format version                           : Version 1
Format profile                           : Layer 3
Mode                                     : Joint stereo
Mode extension                           : MS Stereo
Codec ID                                 : 55
Codec ID/Hint                            : MP3
Duration                                 : 1h 24mn
Bit rate mode                            : Constant
Bit rate                                 : 96.0 Kbps
Channel(s)                               : 2 channels
Sampling rate                            : 44.1 KHz
Compression mode                         : Lossy
Stream size                              : 58.2 MiB (8%)
Alignment                                : Split accross interleaves
Interleave, duration                     : 40 ms (1.00 video frame)
Interleave, preload duration             : 500 ms
[th]http://pics.kz/i3/cb/9d/cb9d52969643c20e7031ee1d6590470a.jpg[/th]
[th]http://pics.kz/i2/3a/5b/3a5b69abd83993d0670ace0c5a119489.jpg[/th]
[th]http://pics.kz/i2/75/d2/75d223e431ea4a4fa1ac350c2535fe8b.jpg[/th]

[Цитировать]



Показать сообщения:    

Текущее время: 08-Дек 03:11

Часовой пояс: UTC + 3


Вы не можете начинать темы
Вы не можете отвечать на сообщения
Вы не можете редактировать свои сообщения
Вы не можете удалять свои сообщения
Вы не можете голосовать в опросах
Вы не можете прикреплять файлы к сообщениям
Вы не можете скачивать файлы

!ВНИМАНИЕ!
Сайт не предоставляет электронные версии произведений, а занимается лишь коллекционированием и каталогизацией ссылок, присылаемых и публикуемых на форуме нашими читателями. Если вы являетесь правообладателем какого-либо представленного материала и не желаете, чтобы ссылка на него находилась в нашем каталоге, свяжитесь с нами, и мы незамедлительно удалим ее. Файлы для обмена на трекере предоставлены пользователями сайта, и администрация не несет ответственности за их содержание. Просьба не заливать файлы, защищенные авторскими правами, а также файлы нелегального содержания!