[ Сегодня идет свободное скачивание без начисления Download ]


Статистика раздачи
Нет
 
   
 
Top  
 
 
Вслепую / Blind Side (1993) DVDRip-AVC Название: Вслепую
Оригинальное название: Blind Side
Год выхода: 1993
Страна: США
Студия: Chestnut Hill Productions, Home Box Office (HBO)
Продолжительность: 01:31:13
Жанр: триллер, ...
Режиссер: Джеф Мерфи
В ролях: Рутгер Хауэр, Ребекка Де Морнэй, Рон Сильвер, Джонатан Бэнкс, Маришка Харгитей, Тамара Клеттербак, Хорхе Сервера мл., Дэвид Лабиоса, Билл Дэнс, Ричард Л. Дюран, ...
Перевод:
Профессиональный (многоголосый, закадровый)
Авторский (одноголосый, закадровый) Михалёв Алексей Михайлович [1944—1994]
О фильме: Романтическое путешествие в Мексику оборачивается для пары американцев настоящим кошмаром: они случайно убивают полицейского. События той роковой поездки держат их в страхе, ведь они знают, что идет расследование. Пытаясь забыть о случившемся и жить нормальной жизнью, они не подозревают, что тот, кто знает всю правду, уже давно рядом с ними…

Кодек: x264
Качество: DVDRip-AVC
Видео: 760x516 , 3500 kbps, 25 fps
Аудио #1: AC-3, 6 ch, 448 kbps (Rus) - MVO
Аудио #2: AC-3, 2 ch, 192 kbps (Rus) - AVO Михалёв Алексей Михайлович
Аудио #3: AC-3, 6 ch, 448 kbps (Eng)
Субтитры: Русские (VobSub)

MI

x264 [info]: frame I:937 Avg QP:14.94 size: 75392
x264 [info]: frame P:28520 Avg QP:17.17 size: 32551
x264 [info]: frame B:107368 Avg QP:19.30 size: 12996
x264 [info]: consecutive B-frames: 1.2% 1.5% 7.1% 22.7% 19.9% 35.0% 10.5% 1.0% 0.5% 0.4% 0.1% 0.0% 0.1%
Общее
Уникальный идентификатор : 222012153566107444446482621040534444840 (0xA705FC46EA659A7AB4EBE0C6BAE75B28)
Полное имя : Вслепую (Blind Side) 1993 DVDRip.mkv
Формат : Matroska
Версия формата : Version 2
Размер файла : 2,93 Гбайт
Продолжительность : 1 ч. 31 м.
Общий поток : 4592 Кбит/сек
Дата кодирования : UTC 2016-03-01 10:52:32
Программа кодирования : mkvmerge v4.0.0 ('The Stars were mine') сборка от Jun 6 2010 16:18:42
Библиотека кодирования : libebml v1.0.0 + libmatroska v1.0.0
Видео
Идентификатор : 1
Формат : AVC
Формат/Информация : Advanced Video Codec
Профиль формата : [email protected]
Параметр CABAC формата : Да
Параметр ReFrames формата : 9 кадров
Идентификатор кодека : V_MPEG4/ISO/AVC
Продолжительность : 1 ч. 31 м.
Битрейт : 3500 Кбит/сек
Ширина : 760 пикселей
Высота : 516 пикселей
Соотношение сторон : 3:2
Режим частоты кадров : Постоянный
Частота кадров : 25,000 кадров/сек
Цветовое пространство : YUV
Субдискретизация насыщенности : 4:2:0
Битовая глубина : 8 бит
Тип развёртки : Прогрессивная
Бит/(Пиксели*Кадры) : 0.357
Размер потока : 2,17 Гбайт (74%)
Библиотека кодирования : x264 core 146 r2538 121396c
Настройки программы : cabac=1 / ref=9 / deblock=1:-3:-3 / analyse=0x3:0x133 / me=umh / subme=11 / psy=1 / psy_rd=1.08:0.12 / mixed_ref=1 / me_range=32 / chroma_me=1 / trellis=2 / 8x8dct=1 / cqm=0 / deadzone=21,11 / fast_pskip=0 / chroma_qp_offset=-3 / threads=12 / lookahead_threads=2 / sliced_threads=0 / nr=0 / decimate=0 / interlaced=0 / bluray_compat=0 / constrained_intra=0 / bframes=12 / b_pyramid=2 / b_adapt=2 / b_bias=0 / direct=3 / weightb=1 / open_gop=0 / weightp=2 / keyint=250 / keyint_min=25 / scenecut=40 / intra_refresh=0 / rc_lookahead=60 / rc=2pass / mbtree=0 / bitrate=3500 / ratetol=1.0 / qcomp=0.60 / qpmin=0 / qpmax=69 / qpstep=4 / cplxblur=20.0 / qblur=0.5 / vbv_maxrate=50000 / vbv_bufsize=62500 / nal_hrd=none / filler=0 / ip_ratio=1.40 / pb_ratio=1.30 / aq=1:0.90
Язык : English
Default : Нет
Forced : Нет
Аудио #1
Идентификатор : 2
Формат : AC-3
Формат/Информация : Audio Coding 3
Расширение режима : CM (complete main)
Параметр Endianness формата : Big
Идентификатор кодека : A_AC3
Продолжительность : 1 ч. 31 м.
Вид битрейта : Постоянный
Битрейт : 448 Кбит/сек
Каналы : 6 каналов
Расположение каналов : Front: L C R, Side: L R, LFE
Частота : 48,0 КГц
Метод сжатия : С потерями
Размер потока : 292 Мбайт (10%)
Заголовок : MVO
Язык : Russian
Default : Нет
Forced : Нет
Аудио #2
Идентификатор : 3
Формат : AC-3
Формат/Информация : Audio Coding 3
Расширение режима : CM (complete main)
Параметр Endianness формата : Big
Идентификатор кодека : A_AC3
Продолжительность : 1 ч. 31 м.
Вид битрейта : Постоянный
Битрейт : 192 Кбит/сек
Каналы : 2 канала
Расположение каналов : Front: L R
Частота : 48,0 КГц
Метод сжатия : С потерями
Размер потока : 125 Мбайт (4%)
Заголовок : AVO Михалёв Алексей Михайлович [1944—1994]
Язык : Russian
Default : Нет
Forced : Нет
Аудио #3
Идентификатор : 4
Формат : AC-3
Формат/Информация : Audio Coding 3
Расширение режима : CM (complete main)
Параметр Endianness формата : Big
Идентификатор кодека : A_AC3
Продолжительность : 1 ч. 31 м.
Вид битрейта : Постоянный
Битрейт : 448 Кбит/сек
Каналы : 6 каналов
Расположение каналов : Front: L C R, Side: L R, LFE
Частота : 48,0 КГц
Метод сжатия : С потерями
Размер потока : 292 Мбайт (10%)
Язык : English
Default : Нет
Forced : Нет
Текст
Идентификатор : 5
Формат : VobSub
Режим смешивания : zlib
Идентификатор кодека : S_VOBSUB
Идентификатор кодека/Информация : Picture based subtitle format used on DVDs
Язык : Russian
Default : Нет
Forced : Нет

Скриншоты


[Цитировать]



Показать сообщения:    

Текущее время: 06-Дек 15:13

Часовой пояс: UTC + 3


Вы не можете начинать темы
Вы не можете отвечать на сообщения
Вы не можете редактировать свои сообщения
Вы не можете удалять свои сообщения
Вы не можете голосовать в опросах
Вы не можете прикреплять файлы к сообщениям
Вы не можете скачивать файлы

!ВНИМАНИЕ!
Сайт не предоставляет электронные версии произведений, а занимается лишь коллекционированием и каталогизацией ссылок, присылаемых и публикуемых на форуме нашими читателями. Если вы являетесь правообладателем какого-либо представленного материала и не желаете, чтобы ссылка на него находилась в нашем каталоге, свяжитесь с нами, и мы незамедлительно удалим ее. Файлы для обмена на трекере предоставлены пользователями сайта, и администрация не несет ответственности за их содержание. Просьба не заливать файлы, защищенные авторскими правами, а также файлы нелегального содержания!