[ Сегодня идет свободное скачивание без начисления Download ]


Статистика раздачи
Скачал: [ 1 ]
 
   
 
Top  
 
 
Нейлон 100% (1973) DVDRip-AVC Информация о фильме
Название: Нейлон 100%
Год выхода: 1973
Жанр: Комедия, сатира, музыкальный
Режиссер: Владимир Басов ст.
В ролях: Владимир Басов ст., Валентина Титова, Нина Агапова, Михаил Погоржельский, Микаэла Дроздовская, Евгений Весник, Евгений Евстигнеев, Леонид Куравлёв, Нина Крачковская, Михаил Пуговкин, Муза Крепкогорская, Леонид Каневский, Владимир Этуш, Юрий Белов, Тамара Совчи, Борис Новиков, Артём Карапетян, Юрий Волынцев, Римма Маркова, Лариса Барабанова, Наталья Крачковская, Николай Сергеев, Александр Басов, Эраст Гарин, Лилия Журкина, Борис Заволокин, Александр Светлов
О фильме:
Получив в подарок от мужа нейлоновую шубку, привезенную им из-за границы, жена тут же снесла ее в комиссионный магазин. Шубка очень понравилась продавцам - и на прилавке не появилась, а "пошла гулять" по рукам, побывав у зубного техника, продавца помидоров, адвоката, артистов и, наконец, попала к известному коневоду...
Страна: СССР, Мосфильм
Продолжительность: 01:21:22
Перевод: не требуется
Файл
Кодек: x264
Качество: DVDRip-AVC
Видео: MPEG-4, 2625 Кбит/с, [email protected]/* */
Звук: AC3, 2 ch, 256 Кбит/с

Медиа-Инфо

x264 [info]: frame I:788 Avg QP:17.37 size: 58671
x264 [info]: frame P:30425 Avg QP:19.38 size: 29681
x264 [info]: frame B:90829 Avg QP:21.53 size: 7184
===========================================================================================================
Общее
Уникальный идентификатор : 196053465520361814126395747305689697693 (0x937E86248384C6ABB7D3B049B56BCD9D)
Полное имя : D:Нейлон 100%_1973-DVDRip-AVC.mkv
Формат : Matroska
Версия формата : Version 2
Размер файла : 1,64 Гбайт
Продолжительность : 1 ч. 21 м.
Общий поток : 2883 Кбит/сек
Дата кодирования : UTC 2016-03-11 19:48:36
Программа кодирования : mkvmerge v5.8.0 ('No Sleep / Pillow') built on Sep 2 2012 15:37:04
Библиотека кодирования : libebml v1.2.3 + libmatroska v1.3.0
Видео
Идентификатор : 1
Формат : AVC
Формат/Информация : Advanced Video Codec
Профиль формата : High@L4.1
Параметр CABAC формата : Да
Параметр ReFrames формата : 14 кадров
Идентификатор кодека : V_MPEG4/ISO/AVC
Продолжительность : 1 ч. 21 м.
Битрейт : 2625 Кбит/сек
Ширина : 676 пикселей
Высота : 552 пикселя
Соотношение сторон : 4:3
Соотношение сторон в оригинале : 4:3
Режим частоты кадров : Постоянный
Частота кадров : 25,000 кадров/сек
Цветовое пространство : YUV
Субдискретизация насыщенности : 4:2:0
Битовая глубина : 8 бит
Тип развёртки : Прогрессивная
Бит/(Пиксели*Кадры) : 0.281
Размер потока : 1,46 Гбайт (89%)
Библиотека кодирования : x264 core 148 r2638 7599210
Настройки программы : cabac=1 / ref=14 / deblock=1:-2:-2 / analyse=0x3:0x133 / me=umh / subme=10 / psy=1 / psy_rd=1.05:0.12 / mixed_ref=1 / me_range=32 / chroma_me=1 / trellis=2 / 8x8dct=1 / cqm=0 / deadzone=21,11 / fast_pskip=0 / chroma_qp_offset=-3 / threads=12 / lookahead_threads=2 / sliced_threads=0 / nr=0 / decimate=0 / interlaced=0 / bluray_compat=0 / constrained_intra=0 / bframes=9 / b_pyramid=2 / b_adapt=2 / b_bias=0 / direct=3 / weightb=1 / open_gop=0 / weightp=2 / keyint=250 / keyint_min=25 / scenecut=40 / intra_refresh=0 / rc_lookahead=40 / rc=2pass / mbtree=1 / bitrate=2625 / ratetol=1.0 / qcomp=0.65 / qpmin=0 / qpmax=39 / qpstep=4 / cplxblur=20.0 / qblur=0.5 / ip_ratio=1.20 / aq=1:1.00
Default : Да
Forced : Нет
Основные цвета : BT.601 PAL
Характеристики трансфера : BT.470 System B, BT.470 System G
Коэффициенты матрицы : BT.601
Аудио
Идентификатор : 2
Формат : AC-3
Формат/Информация : Audio Coding 3
Расширение режима : CM (complete main)
Параметр Endianness формата : Big
Идентификатор кодека : A_AC3
Продолжительность : 1 ч. 21 м.
Вид битрейта : Постоянный
Битрейт : 256 Кбит/сек
Каналы : 2 канала
Расположение каналов : Front: L R
Частота : 48,0 КГц
Битовая глубина : 16 бит
Метод сжатия : С потерями
Размер потока : 149 Мбайт (9%)
Язык : Russian
Default : Да
Forced : Нет

[Цитировать]



Показать сообщения:    

Текущее время: 08-Дек 06:59

Часовой пояс: UTC + 3


Вы не можете начинать темы
Вы не можете отвечать на сообщения
Вы не можете редактировать свои сообщения
Вы не можете удалять свои сообщения
Вы не можете голосовать в опросах
Вы не можете прикреплять файлы к сообщениям
Вы не можете скачивать файлы

!ВНИМАНИЕ!
Сайт не предоставляет электронные версии произведений, а занимается лишь коллекционированием и каталогизацией ссылок, присылаемых и публикуемых на форуме нашими читателями. Если вы являетесь правообладателем какого-либо представленного материала и не желаете, чтобы ссылка на него находилась в нашем каталоге, свяжитесь с нами, и мы незамедлительно удалим ее. Файлы для обмена на трекере предоставлены пользователями сайта, и администрация не несет ответственности за их содержание. Просьба не заливать файлы, защищенные авторскими правами, а также файлы нелегального содержания!