[ Сегодня идет свободное скачивание без начисления Download ]


Статистика раздачи
Нет
 
   
 
Top  
 
 
Гравитация / Gravity (2013) BDRip 1080p | 60 fps Название: Гравитация
Оригинальное название: Gravity
Год выпуска: 2013
Страна: Великобритания, США
Жанр: фантастика, триллер
Продолжительность: 01:30:58
Перевод: Дубляж
Субтитры: русские (Форсированные), русские (Полные), украинские (Полные), английские (Полные), английские (Полные SDH), английские (Полные SDH-COLORED)
Режиссер: Альфонсо Куарон
В ролях: Сандра Буллок (Ryan Stone), Джордж Клуни (Matt Kowalski), Эд Харрис (Mission Control, озвучка), Орто Игнатиуссен (Aningaaq, озвучка), Фалдут Шарма (Shariff, озвучка), Эми Уоррен (Explorer Captain, озвучка), Башер Сэвэдж (Russian Space Station Captain, озвучка), Адам Козенс (Adam, в титрах не указан)-Описание:
Доктор Райан Стоун, блестящий специалист в области медицинского инжиниринга, отправляется в свою первую космическую миссию под командованием ветерана астронавтики Мэтта Ковальски, для которого этот полет - последний перед отставкой. Но во время, казалось бы, рутинной работы за бортом случается катастрофа.
Шаттл уничтожен, а Стоун и Ковальски остаются совершенно одни; они находятся в связке друг с другом, и все, что они могут, - это двигаться по орбите в абсолютно черном пространстве без всякой связи с Землей и какой-либо надежды на спасение.
Рейтинг:

MPAA: PG-13 - Детям до 13 лет просмотр не желателен
Качество: BDRip 1080p 60fps
Формат: MKV
Видео: AVC, 1920x800 (2.40:1), 14000 kbps, 60 fps, 0,152 bpp
Аудио 1: русский / AC3 / 5.1 / 48 kHz / 448 kbps / 16 bit
Аудио 2: русский / DTS / 5.1 / 48 kHz / 1509 kbps / 16 bit |AVO Живов (Отдельно в папке)|
Аудио 3: русский / DTS / 5.1 / 48 kHz / 1509 kbps / 16 bit |AVO Горчаков (Отдельно в папке)|
Аудио 4: русский / DTS / 5.1 / 48 kHz / 1509 kbps / 16 bit |AVO Немахов (Отдельно в папке)|
Аудио 5: русский / DTS / 5.1 / 48 kHz / 1509 kbps / 16 bit |VO Есарев (Отдельно в папке)|
Аудио 6: украинский / AC3 / 5.1 / 48 kHz / 448 kbps / 16 bit |Дубляж (Отдельно в папке)|
Аудио 7: английский / DTS / 5.1 / 48 kHz / 1509 kbps / 16 bit |Оригинал (Отдельно в папке)|
Навигация по главам: есть

ОтчетМедиаИнфо

General
Unique ID : 224793792529224098123342681367799792286 (0xA91DB5AA9A49CE4784984B6C5D26029E)
Format : Matroska
Format version : Version 4 / Version 2
File size : 8.99 GiB
Duration : 1h 30mn
Overall bit rate : 14.1 Mbps
Movie name : Tiberiumsun69
Encoded date : UTC 2016-03-11 19:30:39
Writing application : mkvmerge v8.3.0 ('Over the Horizon') 64bit
Writing library : libebml v1.3.1 + libmatroska v1.4.2
DURATION : 01:29:50.093000000
NUMBER_OF_FRAMES : 1000
NUMBER_OF_BYTES : 43643
_STATISTICS_WRITING_APP : mkvmerge v8.3.0 ('Over the Horizon') 64bit
_STATISTICS_WRITING_DATE_UTC : 2016-03-11 19:30:39
_STATISTICS_TAGS : BPS DURATION NUMBER_OF_FRAMES NUMBER_OF_BYTES
Attachment : Yes
Video
ID : 1
Format : AVC
Format/Info : Advanced Video Codec
Format profile : High@L4.1
Format settings, CABAC : Yes
Format settings, ReFrames : 4 frames
Codec ID : V_MPEG4/ISO/AVC
Duration : 1h 30mn
Bit rate : 14.0 Mbps
Width : 1 920 pixels
Height : 800 pixels
Display aspect ratio : 2.40:1
Frame rate : 60.000 fps
Color space : YUV
Chroma subsampling : 4:2:0
Bit depth : 8 bits
Scan type : Progressive
Bits/(Pixel*Frame) : 0.152
Stream size : 8.52 GiB (95%)
Title : Tiberiumsun69
Writing library : x264 core 146 r2538 121396c
Encoding settings : cabac=1 / ref=4 / deblock=1:0:0 / analyse=0x3:0x113 / me=umh / subme=9 / psy=1 / psy_rd=1.00:0.10 / mixed_ref=1 / me_range=32 / chroma_me=1 / trellis=2 / 8x8dct=1 / cqm=0 / deadzone=21,11 / fast_pskip=0 / chroma_qp_offset=-3 / threads=12 / lookahead_threads=3 / sliced_threads=0 / nr=0 / decimate=1 / interlaced=0 / bluray_compat=0 / constrained_intra=0 / bframes=16 / b_pyramid=2 / b_adapt=2 / b_bias=0 / direct=3 / weightb=1 / open_gop=0 / weightp=2 / keyint=250 / keyint_min=25 / scenecut=40 / intra_refresh=0 / rc_lookahead=40 / rc=2pass / mbtree=0 / bitrate=14000 / ratetol=1.0 / qcomp=0.60 / qpmin=0 / qpmax=69 / qpstep=4 / cplxblur=20.0 / qblur=0.5 / vbv_maxrate=14000 / vbv_bufsize=14000 / nal_hrd=none / filler=0 / ip_ratio=1.40 / pb_ratio=1.30 / aq=1:1.00
Language : English
Default : Yes
Forced : No
DURATION : 01:30:58.828000000
NUMBER_OF_FRAMES : 327529
NUMBER_OF_BYTES : 9339592334
_STATISTICS_WRITING_APP : mkvmerge v8.3.0 ('Over the Horizon') 64bit
_STATISTICS_WRITING_DATE_UTC : 2016-03-11 19:30:39
_STATISTICS_TAGS : BPS DURATION NUMBER_OF_FRAMES NUMBER_OF_BYTES
Audio
ID : 2
Format : AC-3
Format/Info : Audio Coding 3
Mode extension : CM (complete main)
Codec ID : A_AC3
Duration : 1h 30mn
Bit rate mode : Constant
Bit rate : 448 Kbps
Channel(s) : 6 channels
Channel positions : Front: L C R, Side: L R, LFE
Sampling rate : 48.0 KHz
Bit depth : 16 bits
Compression mode : Lossy
Stream size : 292 MiB (3%)
Title : Дубляж
Language : Russian
Default : Yes
Forced : No
Text #1
ID : 3
Format : UTF-8
Codec ID : S_TEXT/UTF8
Codec ID/Info : UTF-8 Plain Text
Title : Форсированные
Language : Russian
Default : Yes
Forced : No
Text #2
ID : 4
Format : UTF-8
Codec ID : S_TEXT/UTF8
Codec ID/Info : UTF-8 Plain Text
Title : Полные
Language : Russian
Default : No
Forced : No
Text #3
ID : 5
Format : UTF-8
Codec ID : S_TEXT/UTF8
Codec ID/Info : UTF-8 Plain Text
Title : Полные
Language : Ukrainian
Default : No
Forced : No
Text #4
ID : 6
Format : UTF-8
Codec ID : S_TEXT/UTF8
Codec ID/Info : UTF-8 Plain Text
Title : Полные
Language : English
Default : No
Forced : No
Text #5
ID : 7
Format : UTF-8
Codec ID : S_TEXT/UTF8
Codec ID/Info : UTF-8 Plain Text
Title : Полные SDH
Language : English
Default : No
Forced : No
Text #6
ID : 8
Format : UTF-8
Codec ID : S_TEXT/UTF8
Codec ID/Info : UTF-8 Plain Text
Title : Полные SDH-COLORED
Language : English
Default : No
Forced : No
Menu
00:00:00.000 : en:Chapter 1
00:13:08.830 : en:Chapter 2
00:21:33.542 : en:Chapter 3
00:29:12.668 : en:Chapter 4
00:39:59.856 : en:Chapter 5
00:48:49.051 : en:Chapter 6
00:57:00.667 : en:Chapter 7
01:08:08.418 : en:Chapter 8
01:15:27.148 : en:Chapter 9
01:23:50.567 : en:Chapter 10

[Цитировать]



Показать сообщения:    

Текущее время: 10-Дек 23:23

Часовой пояс: UTC + 3


Вы не можете начинать темы
Вы не можете отвечать на сообщения
Вы не можете редактировать свои сообщения
Вы не можете удалять свои сообщения
Вы не можете голосовать в опросах
Вы не можете прикреплять файлы к сообщениям
Вы не можете скачивать файлы

!ВНИМАНИЕ!
Сайт не предоставляет электронные версии произведений, а занимается лишь коллекционированием и каталогизацией ссылок, присылаемых и публикуемых на форуме нашими читателями. Если вы являетесь правообладателем какого-либо представленного материала и не желаете, чтобы ссылка на него находилась в нашем каталоге, свяжитесь с нами, и мы незамедлительно удалим ее. Файлы для обмена на трекере предоставлены пользователями сайта, и администрация не несет ответственности за их содержание. Просьба не заливать файлы, защищенные авторскими правами, а также файлы нелегального содержания!